&title=Standby For Action
&artist=3R2
&first=0.02
&des=Mr_HaoZi
&lv_5=13+
&inote_5=(128)
{1},
{32}E1f,E2/E8,E7/E3/C,E4/E5/E6,4x^1[4:4]/5x^8[4:4],,,,{4},,,
{1},
{32}E5f,E4/E6,E3/E7/C,E1/E2/E8,1x^4[4:4]/8x^5[4:4],,,,{4},,,
{4},,{16},,2,6,2,6,2,,
{4}5^8[4:3],1,2,3,
{4}4^1[4:3],8,7,6,
{8}5<4[4:7],,,,,E1,B1,B2,
{8}E3,B3,B4,E5,{32}E1,B8,B7,,,,,,E8,B7,B6,,,,,,
{32}8,7,6,,{16}6,,3^8[8:1],4,2,,,7,,7,4,6,3,5,
{16}5,,5,,,3,4,2,,8,1,8,1,8,1,,
{32}1^6[8:1],2,3,,{16}3,,1,4,4,,,5,,5,5,3,3,6,
{16}6h[8:1],,,,1,,6,6,2,2,6,6,{32}2/6^1[8:1],37,48,,{16},,
{16}6,,2^5[8:1],,7,7,2,,,8,,8,1,1,7^4[8:1],7,
{16}1,1,,8,,,4,4,8,8,5,5,1,1,6,6,
{16}2,,2v4[8:1]/1V75[8:1],,3,3,,,,,3,,3,6,6,1,
{16}5,5,,2,2,,{32}8,7,6,5,4,3,2,1,4,3,2,1,8,7,6,5,48,,,,
{32}4b^7[8:1]/8b^3[8:1],37,26,15,{16},,48,,,,3,4,3,4,2,4,2,4,
{32}1,2,3,,5,,5,,1,8,7,,5,,5,,1,2,3,4,5,6,7,8,15,4,3,2,1,8,7,6,
{4}5-2[8:1]/1b-6[8:1],15,{16}1,5,2,6,3,7,4,8,
{16}3,7,2,6,1,5,2,6,3,7,4,8,{32}3b-7[8:1],2,1,8,,,,,
{16}3^8[8:1],,,,3,,5,5,2,2,5,5,1,1,5,5,
{16}8,8,5,5,1,1,5,5,2,2,5,5,3,3,5,5,
{32}8b^5[8:1],1,2,3,,,,,8,1,2,3,{16},,1,8,2,7,4,5,3,6,
{32}2b/7b,36,45,,,,,,2b/7b,36,45,,,,,,1b/5b,26,37,48,,,,,1b/5b,48,37,26,,,,,
{8}2-5[8:1],8h[8:4],2,,3h[8:3],,5h[8:1],,
{16},,3,4,1,8,3,4,1,8,3h[4:1],,{32}E8,B7,B6,E6,,,,,
{8}5<1[8:1],3h[2:1]/4,5,,1h[8:3],,2h[8:1],,
{16},,6,5,7,4,6,5,7,4,5h[8:1],,{32}E1,B8,B7,E7,,,,,
{8}3/4<8[8:1],18,3h[8:3]/4,,7h[8:3],,8h[8:1],,
{16},,E3,,6,5,8,1,6^1[8:1],,3,3,6,,,,
{8}1^4[8:1]/7h[8:5],8,1,,3h[8:3],,5h[8:1],,
{16}3x/8x,,7,7,1x/6x,,2/5,,3x/6x,,36,,3x/7x,,,,
{8}2^5[8:1]/5,5^8[8:1]/8,2/5h[2:1],,,1h[4:1],,,
{16},,1,1,5,,1,5,,1,5,5,{32}1b,2,3,,,,,,
{8}7/8>6[4:1],2/5h[8:3],8,,,E8,C,E4,
{16},,1,,1,,1,6,2-7[8:1],4,1,6,2,,,,
{8}4/6^1[8:1],1q3[4:1]/7,4h[4:1],,,1h[4:1],7h[8:1],,
{16},,1,1,5,,1,5,,1,5,,1b,,,,
{4}2-5[8:1]/4,28,7-4[8:1]/5,17,
{4}1-5[8:1]/8-4[8:1],18,{32}2,6,2,6,2,6,2,6,{4}2w6[8:1],
{4}2<2[4:7],C,C,C,
{4}C,C,C,C,
{4}7>7[4:7],C,C,C,
{4}C,C,C,C,
{4}1^4[4:3],5,6,7,
{4}8^5[4:3],4,3,2,
{4}1^4[8:1],6,8^5[8:1],3,
{8}1b,2b,3b,4b,5bw1[8:1],6b,5b,,
{32}1b/8b,27,36,45,{16},,1^4[8:1],,7,7h[8:1],,,1^6[8:1],,3,3h[8:1],,,
{16}4,,8^5[8:1],,2,2h[8:1],,,8^3[8:1],8,,,6,6h[8:1],,,
{32}3b/6b,27,18,,{16},,1^4[8:1]/8,,6,1,,,5,,3^8[8:1],3,,,
{16}3,,5,,6-2[8:1],6,,6,,,3-8>4[4:1],,7,3,,,
{32}5b,6,7,8,,,,,37,26,15,48,{16}3/7-3-5-1[4:1],,1,,7,,2,2,,,
{16}7,,7,,2,8,2,8,3,7,4,6,{32}4-8[8:1]/6^8[8:1],35,24,,,,,,
{16}4b/6b,,,,1-4[8:1],,6-8^5[4:1],6,,,6,,2,2,,,
{16}1,4,3,4,8,4,3,4,7-3-5[4:1],,6^1[8:1],,5-1[8:1],,6,,
{4},{32}2,4,2,4,2h[4:1],4,,,5,,,,6,7,8,,2b,3,4,,7,,,,
{32}2,3,4,,7,,,,2b,3,4,,7,,,,2,3,4,,7,,,,2b,3,4,,7,,,,
{8}8b^5[8:1],3-8[8:1],8>4[8:1],3^6[8:1],6-2[8:1],2-6[8:1],6^1[8:1],,
{8}5-2[8:1],5x,1-4[8:1],5-8[8:1],1-6[8:1],5,1,,
{32}7b/8b,16,25,34,,,,,26,37,48,,,,,,2,1,2,1,2,1,2,,8-4[8:1],,8,,,,,,
{32}8/4,3,2,1,8,7,6,5,8,7,6,5,4,3,2,1,8/4,5,6,7,8,1,2,3,4/8b,7,6,5,,,,,
{32}5b-2[8:1]/1b-6[8:1],26,37,48,15,,,,15,,,,,,,,2,6,2,6,2,6,2,6,2,6,2,6,,,,,
{32}1b,2,3,,5,,5,,1b,8,7,,5,,5,,1b,2,3,4,5,6,7,8,15,26,37,48,15,26,,,
{32}2b/6b,15,48,37,26,15,48,3^1-3-8[1:1]/7^6v5[1:1],
E
