&title=Luminous Entities Lost Heart
&artist=GTS Sound Team,うさぎでんき,NormalM
&first=0
&des_5=xht350
&lv_5=14+
&inote_5=(200)
{16},,,,,,1,7,6,7x,5,1,3x-7[8:1],,,,
{8}34,4,,5-2-8[4:1],45,,3-7[1:1]*-7[1:1],3hx[2:1],
{1},
{8}1b,2,3,5h[4:1],,4,6,7,
{8}18,3,4,25,4,8,7,16,
{8}7<4[4:1],7x,8,1,2<7[4:1],2x,3,4,
{8}5>8q4[2:1],,,,5q1<5[8:10],,,3xq1<3[1:1],
{1}3hx[4:1],
{8}8q1[1:1],,,,,,C,,
{1}E4h[1:1],
{8}5h[4:1],,,B7/E8/B8,,,1h[4:1],,
{8}3>4[1:1],B1,C,B5,,,,,
{8},,2h[4:1],,4q6[2:1],,,,
{1}E2h[1:1],
{8}8,,,24,,,46,,
{8}2bp5q1[8:6]/7bx,B7,C,B3,,,,,
{1}B6h[1:2]/B5h[1:2],B1hf[1:1]/B2hf[1:1],
{1}Ch[8:6],
{24}8b,7,6,{8}5x/2,3,6h[8:1]/4-2[8:1],,4/7,5,{16}1x,4,
{8}1h[4:1],,8,{16}2,3,{8}46,5,35,4,
{16}56,,56,,7,8,7,,3,,34,,2>5[8:1],1,,,
{16}28,7,6,,4x,6,3,5,2<7[8:1]*>5[8:1],,,,2b,,,,
{8}Cf,,2/7v2<1[4:1],,1v6[4:1],3x,4-8[8:1],4,
{8}4,7-5[8:1],1-5[8:1],7,1b,,6,{16}3,4,
{8}2,2h[8:1],1,1h[8:1],8,8h[8:1],7-2[8:1],6,
{8}5-8[8:1],5,1-4[8:1],1,E8,E7h[8:1],E4,E3hf[8:1],
{32}D1,A8,D8,A7,D7,A6,D6,A5,
{8}D5/2,2qq1[8:3],,5,5,B5,
{8}E7,2,B3,B1,8,7q5[4:1],2,1,
{8}1b,,{16}3,,3,4,2h[4:1],,,,8,,8,5,
{8}8h[4:1],,2-5[8:1],7,2,B8/E8,4,4-1[8:1],
{8}5b,,7,{16}7,6,7h[4:1],,,,3,,3,5,
{8}4h[4:1],,,{16}35,26,{8}1/7-4[8:1],1x,8-3[8:1],8,
{8}5-1-7-4[2:1],4,5,2h[4:1],,,{32}E1,E8,E7,E6,E5,E4,E3,E2,
{8}E1h[2:1],,7xz3>2-6[8:3],,,,,,
{24}1b/7x,2,3,4,5b,6,7,8,1b,2/7x,3/6x,4/5hx[8:1],
{16},,,,6,8,7,1,
{24}8b/2x,7,6,5,4b,3,2,1,8b,7/2x,6/3x,5/4hx[8:1],
{16},,,,3,1,2,8,
{24}1b/7x,2,3,4,5b,6,7,8,1b,2/7x,3/6x,4/5hx[8:1],
{16},,8,1,2,3,4,5,
{4}6h[8:1]/7h[16:3],2h[8:1]/3h[16:3],4h[8:1]/5h[8:1],45,
{32}4b/5b,3b/6b,2b/7b,1bxp3p5p7p1[8:22]/8bxq6q4q2q8[8:22],{8},
{1},,,
{16},,7,2,6,,4,,36,,5,5x,
{8}2,2,23,2,12,2,{24}2b/3b,4,5,6,7,8,
{8}12,2,23,2,1/2-7[8:1],2,2b/3b,,
{16}5,8,6,1,7,8,5,2,5,2,6,3,7,4,1,2,
{16}8bx,8,8,8,8,8,{8}8x-4-1-6[3:1],7,8,6,,
{8}5hb[4:1],,{16}8,5,8,,4<7[8:1],3,4,2,4,,1,,
{16}8,1,2,3,5>2[8:1],6,7,,8,7,6,5,4x/1,1,,,
{16}6,8,7,,1-5v2[4:1],8,1,,6,7,8w4[16:1],,,,,,
{8}E6/D6,B2/B3/E3,E8,E2/D2,{16}7,6,5,2q5[8:3],4,3,5,,
{16},,7x,,E8,,E1,,{16}2>5[8:1],1,2,1,2,,C,,
{16}8,7,64,,4,3,2,8-6q2[4:1],1,7,,,4,,5h[8:1],,
{24}E3,B3,B4,E6,B6,B7,E8,E1,E2,E3,E4,E5,1bx-6[8:1]*-4[8:1],,,,,,1,,,,,,
{16}2,3,8,7,3,4,7,6,2/5-1[8:1],3,4,,4x-7[8:1]*-8[8:1]/5x,,3,,
{16}4b,,,,1x/6x,,5,2,5v6[4:1],1,4,,5,,1,,
{16}2,2,7,,8,8,4,,3v2[4:1],5,3,,7-4[8:1],,7,,
{16},,1h[8:1],,5,6,7,8,12,,34,,25,,16,,
{16}2,6,2,6,3,7,3,7,2,3,4,5,1,2,3,4,
{8}15,2,37,6,3-7[8:1]/4-8[8:1],,3x/4x,,
{8}16,2,37,8,5-1[8:1]/6-2[8:1],,56,,
{8}1hx[16:1]/8hx[16:1],1h[16:1]/8h[16:1],2h[16:1]/8h[16:1],3h[16:1]/8h[16:1],4h[16:1]/8h[16:1],5h[16:1]/8h[16:1],6h[16:1]/8h[16:1],7h[16:1]/8h[16:1],
{8}7x-5-3-1q7[8:5]/8x-6-4-2q8[8:5],,,,,,,,
{24}1x,2x,3x,4x,5x,6x,7x,8x,1x,2x,3x,4x,5x,6x,7x,8x,1x,2x,3x,4x,5x,6x,7x,8x,
{8}1x/Chf[1:1],,1,8,8,1,2,2,
{24}3,4,5,6,7,8,1,2,3,4,5,6,E8,E1,E2,E3,E4,E5,E6hf[4:1],,,8,,,
{24}1,2,3,4,5,6,7,8,1,2,3,4,5,6,7,8,1,2,
3v8>2-7-3[8:7]*v6>4-7-3[8:7],,,,,,
{1}3b/Cf,
{16}24,,2,,4,,1,7,,7,4,,35,,46,,
{24}7,6,5,4,3,2,1,8,7,6,5,4,3,2,1,8,7,6,E5,E4,E3,E2,E1,E8,
{24}E7f/3,2,1,8,7,6,5,4,3,2,1,8,7-1-5[16:3],6,5,4,3,2,1h[8:1],,,,,,
{24}B1,B8,B7,B6,B5,B4,B3,B2,E1,E8,E7,E6,E5,E4,E3,E2,D1,D8,D7,D6,D5,D4,D3,D2,
{8}D1f/E5h[8:6],8x-5>4-1[2:1],,,,,,,
{24}26,37,48,15,2,3,4,5,6,7,8,1,2,3,4,5,6,7,{16}8x,7x,8x,7x,
{24}8x,1,2,5,6,7,8,1,2,5,6,7,8,1,2,5,6,7,8,1,2,5,6,7,
{24}8b,1,2,3,4,5,6x,7,8,3,4,5,6x,7,8,3,4,5,6x,7,8,3,4,5,
{16}68,,,,6,,8,4,,4,6,,57,,46,,
{8}4bz8z4[1:1]/5bq8q5[1:1],,,,,,,,
{8},,,,3h[16:1]/6h[16:1],3h[16:1]/6h[16:1],{24}4,5,4,5,4,5,
{4}4x<2q4[1:1],,,,
{8},,,,5>7[2:1],,,,7v2-8-6-4-2[8:10]*v4[4:1],,,,,,,,
{8}8hx[8:1],,,8,,7<4q2[4:3],,,
{8}3<3[1:1],,,,,,,,
{8},,4,,5,,6,,
{8}3-1-5<8[8:5]/7z3>8[8:5],,,,,,,,
{8}B8h[1:1],,,2,,4,,,3>6<3[4:10],,,,,,E7,B2,
{8}E6,B3,E5,B6,E4,B7,,,
{4}E5h[1:1],,,,
{8}1qq6[8:6],,,,5,,5qq2[8:6],,
{4}5<8<5[4:7],,,,
{4},,,2qq7[4:6],3s7[4:5],,,,
{4},,,1b,
{16}8,17,2h[4:1]/6h[1:1],,,,,,{4}2,2,
{8}8h[2:1],4,4h[2:1],,,7,7h[4:1],,
{8}5h[8:3],,4,,4h[4:1]/6z2<8[8:5],,6,,
{8}8,,3,{16},3,3x-7[8:1],,6,,{16}5,5x,,,
{8}6x/7x,6,67,6,56,6,{24}6b/7b,8,1,2,3,4,
{8}56,6,67,6,56,6,6h[8:1]/7h[8:1],,
{16}8,6,1,5,2,4,3,1,3,8,2,7,1,,6,,
{8}5h[8:7]/7<1-5[8:4]*-3b[50#32:1],,,,,,,,
{16}5b-1[8:1]/7b,,,,5,,6-8[8:1],,2>5[8:1],,3,,2x,,1,,
{16}8,7,6,5,34,2,1,8,7-4[8:1],6,5,4,7,,2,,
{8}2v5[4:1],1,5-1<8[4:1],7,8<4[4:1],,4xq1[4:1],,
{8}E7h[8:3],,,2x,18,7,{16},8,7,,
{16}16,2,3,,5,,46,7,8,2,1,3,8-4[8:1],,B2/B3f,,
{16}8b>3[8:1],,,,58,6,7,8,1/4x-7[8:1],,,,47,,6x,,
{16}5b,8,6,2,5x<1[4:1],3,E6/B6,,1-7-4[4:1],,,,4-2-6[4:1],,,,
{16}A8f,,,,,,1,,2h[8:1]/6h[8:1],,,,{8}2-6b[8:1]/4,24,
{16}4b-8[8:1]/2b,,,,4,,3-8[8:1],,2,,7<4[8:1],,6,,7x,,
{16}2b,1,8,7,6-1[8:1],5,4,3,6b/2-5[8:1],,,,2b/8,,,,
{8}7v4[4:1],8,4-8>1[4:1],2,1>5[4:1],,5p8[4:1],,
{8}E3h[8:3],,,7x,81,2,{16},1,2,,
{16}83,7,6,,4,,53,2,1,7,8,6,1-5[8:1],,B7/B6f,,
{16}1b<6[8:1],,,,41,3,2,1,8/5x-2[8:1],,,,52,,3,,
{16}4b,1,3,7,4x>8[4:1],6,E4/B3,,8-2-5[4:1],,,,5-7-3[4:1],,,,
{8}A1hf[4:1],,,,{32}D1,A1,D2,A2,D3,A3,D4,A4,D5,A5,D6,A6,D7,A7,D8,A8f,
{16}2,1x,3,1x,2-4[8:1],8x,2,8x,2-8-6[4:1],,5,,6-1[8:1],,,,
{8}E5/B5/B4,,2,4h[8:1],,1,2/8-6-2[4:1],7,
{8}2p4[4:1],3,4q8>2[4:1],,2x>8[2:1],,5xq1[4:1],,
{8},,A1,,{16}3,4,3,,2>5[8:1],1,,,
{16}2b/8b,,,,6,,6h[4:1],,8-5[8:1],1,2,3,4,5,,,
{16}4-2[8:1],,6-4[8:1],,4,,6x,,1,,7x-4[8:1],,2,,2,,
{4}1hbx[4:1],5x<1[4:1],1>5[4:1],5qq7[2:1],
{8}B1h[8:1],,B3,E2,,,1b/2b,3b/8b,
{16}4b/7b,3,2,1,7,1,8,1,8-5[8:1],2,8-3[8:1],1,8x,,,,
{24}6b,7,8,1,2,3,4,5,6,37,,,{8}2-7[8:1]/6-3[8:1],,26,,
{8}4/8-2-6[4:1],5,6q4[4:1],5,4p8<6[4:1],,6x>8[2:1],,
{8}3xp7[4:1],,,,,,2-4[8:1],6,
{8}2-5[8:1],,2-6[8:1]/6,,27,,8-3[8:1],5-1[8:1],
{8}8,5,8-3[8:1]*-5[8:1],,8b,,{16}26,,26,,
{24}2b,1,8,4b,5,6,27,,,3b,,,6b,7,8,4,3,2,1b/7b,,,8b,,,
{24}2,3,4,8,7,6,5b/3b,,,2b,,,13,,,57,,,{16}6,6,6,6,
{8}6b,
E
