&title=スカーレット革命
&artist=森羅万象
&first=0.02
&des=ホリナリティー*
&clock_count=4
&lv_5=13
&inote_5=(179)
{1}
,
{8}
,,,,,,,,
{8}
6hx[8:3]/4hx[8:2],,,,,E3,E7,,
3hx[8:3]/5hx[8:2],,,,,E7,E3,,
6h[8:2],,4h[8:2],,8h[8:3],3x>4[8:4],,3x,
,,,,8,7,6/4,,
{8}
3bh[8:2]/8b,,5,,6h[8:2]/1,,4,7<4[8:1],
,7/2q6[8:1],,2,8-4[8:1],,8,,
3hx[8:2],,5,,6h[8:2]/1,,4,5<8[8:1],
,5/1>4[8:1],,1,5-7[8:1]*-8[8:1],,5,,
3hx[8:2],,5,,6h[8:2]/1,,4,7p3[8:1],
,7/1-5[8:1],,1,8-6[8:1]*-4[8:1],,8,,
3hx[8:2],,5,6,7h[8:2],3,2,1/8,
,81,72,63,63,,6b/3b,,
{8}
6h[8:6]/4x-1[8:1],,4,,8x-3[8:1],,8,,
2hx[8:6]/7x-4[8:1],,7,,5x-8[8:1],,5,,
6hx[8:6]/4x>1[8:1],,4,,8x-3[8:1],,8,,
4hx[8:2],,6hx[8:2],,1>4[8:1]*<6[8:1],,,,
5-7[8:1],,5/2,,5-1[8:1],,5/2,,
2-4[8:1],,2/6,,1-5[8:1],,1/6,,
8-3[8:1]*-5[8:1],,8,,7x<4[8:1]/4x>1[8:1],,74,,
,E8,B4,E6,B1,,2bxV46[8:2],,
{8}
2/6V42[8:2],,8,,7,,6/2,2-4[8:1],
,5-1[8:1]/2,,8-6[8:1]/5,,8,,35,
,2,2h[8:1],8,8h[8:3],4,3,2,
1/E6,,E3,E4,,E7,E8,,
2,3,4/6h[8:2],,4h[8:2],,8,3>1[8:1],
,8-4[8:1]/3,,5<7[8:1]/8,,5,,3h[8:2],
,5,64,7,35,2,46,8h[8:3],
,1x,1x,1x,8bx/1bx,,,3h[8:2],
,5,4h[8:2],6,,7,7,1,
1,8>3[8:1]*<5[8:1],,8b,,,,,
6x/4x,,6x/4x,,35,35,35,,
2,2,8,8,71,62,5b/3b,4x,
,56,7,8,12,3,45,6,
7x,7x<4b[8:1],,7b/1b,,,,E7f/C/E3,
,,,,,,,E6/E7/A6/E3/A3f/E4,
,,,,,,,,
5x-7[8:1]/4x-7[8:1],,45,,4x-2[8:1]/5x-2[8:1],,54,,
1x-5[8:1]/7x-3[8:1],,,,,8b,8b-4[8:1],8b,
{16}
8b/3>8[8:1],,,,3/7p3[8:1],,,,
7/1v6[8:1],,,,1,,7<4[8:1],,
,,7,,3,,2,,
1-3[8:1]*-5[8:1],,,,1,,,,
6<1[8:1],,,,6/5,,4,,
3>8[8:1],,,,3/4,,5,,
6xv1[8:1],,,,6/2>5[8:1],,,,
2/8-4b[8:1],,,,8b,,,,
2q6[8:1],,,,2/7<4[8:1],,,,
7/8v3[8:1],,,,8,,5<8[8:1],,
,,5,,2,,3,,
4-8[8:1]*-2[8:1],,,,4,,,,
7xp3[8:1],,,,7,,2>5[8:1],,
,,2/6,,7,,1x/8x,,
,,,,1>4b[8:1]/8<5b[8:1],,,,
1b/8b,,,,E4/E6/E5,,,,
3h[8:4]/7-4[8:1],,,,7,,,,
1-6[8:1],,,,1,,5>2[8:1],,
,,5,,8w4[8:1],,,,
8,,,,2x/6x,,,,
7x-5[8:1]/4x-8[8:1],,,,74,,,,
5x-1[8:1]/2x-4[8:1],,,,52,,,,
7x/4x,,,3x/6x,,,2x/5x,,
1x>4[8:1]/4x<7[8:1],,,,14,,,,
8hx[8:2],,,,2,,2h[8:3],,
,,E8,,E7,,,,
4hx[8:2],,,,6,,6h[8:3],,
,,E5,E4,E3,,,,
1,,,,28,,,,
37,,6pp5[8:3]/4qq5[8:3],,,,64,,
,,,,,,,,
7,,6,,5/3,,,,
{8}
4hx[8:2],6,5,3hx[8:2],6,5,2hx[8:2],6,
5,1hx[8:2],6,5,2,3,4/6,,
5hx[8:2],3,4,6hx[8:2],3,4,7hx[8:2],3,
4,8hx[8:2],3,4,7,6,5/3,,
{16}
2>6[16:3],,,,2,,,,
7V53[16:3],,,,7,,,,
1h[8:3],,,,5x-1[8:1],6x,7x,,
5x,,,,3x/7x,,,,
7<3[16:3],,,,7,,,,
2V46[16:3],,,,2,,,,
8h[8:3],,,,4x-8[8:1],3x,2x,,
4x,,,,6x/2x,,,,
6qq7[8:3],,,,,,1x,,
2qq3[8:3],,,,,,5x,,
6,,,7,,,8,,
28,,,,46,,,,
35,,5h[8:3]/3,,,,,,
2,4,3,5,4,6,5,7,
4hx[16:3],,,6hx[16:3],,,5,,
7,5,6,4,5,3,4,2,
5x-8[8:1],,,,5x-2[8:1]/3,,,,
5x-1[8:1]/7,,,,5,,3,,
,,5,,64,,3,4,
2,,6,5,7,,,,
18,,,,27,,,,
3b/6b,,3b/6b,,3b/6b,,,,
5-1[8:1]/4-2[8:1],,,,5-7[8:1]/4-8[8:1],,,,
5b/4b,,,,,,,,
A1/E1/E2,,,,,,,,
A6/E7/E6,,,,,,E4/A4/E5,,
,,18,,,,36,,
5-8b[8:1]/4-1b[8:1],,,,4b/5b,,,,
{16}
3x>8[8:1],,,,3/4,,5,,
6<1[8:1],,,,6/5,,4,,
3xv8[8:1],,,,3/7<4[8:1],,,,
7/1-5b[8:1],,,,1b,,,,
8qq6[8:1],,,,2pp4[8:1]/8,,,,
7/2,,,,6,,4/5,,
,,4,,36,,5,,
4v7[8:1]*v1[8:1],,,,4,,,,
2x,,3x,,4hx[8:1],,7x<4[8:1],,
,,7/3,,2,,1/8,,
,,,,8<5b[8:1]/1>4b[8:1],,,,
8b/1b,,,,E6/E5/E4,,,,
7h[8:4]/2-5[8:1],,,,2,,,,
4x-1[8:1],,,,4,,7V53[8:1],,
,,7,,1w5[8:1],,,,
1,,,,3x/7x,,,,
7-5[8:1]/8-4[8:1],,,,78,,,,
2-4[8:1]/1-5[8:1],,,,12,,,,
78,,,56,,,34,,
1-6[8:1]/2-5[8:1],,,,1b/2b,,,,
4hx[8:2],,,,6x,,6hx[8:3],,
,,E3,,E4,,,,
2hx[8:2],,,,8x,,8hx[8:3],,
,,E5,E4,E3,,,,
1,,,,28,,,,
37,,6pp5[8:3]/4qq5[8:3],,,,64,,
,,,,,,,,
7,,6,,5/1,,,,
37,,,,2bv4[8:1]/8bv6[8:1],,,,
2b/8b,,,,,,28,,
,,1-5[8:1],,7-3[8:1],,1,,
7,,,,,,4x/6x,,
,,6-2[8:1],,4-8[8:1],,6,,
4w8b[8:1],,,,4bx,Cf,,,
,,,,,,,,
,,,,,,,,
E
