&title=Drop It
&artist=椎乃味醂
&first=0
&des_5=我发现不带脑子写谱会很舒服
&lv_5=14
&des=我发现不带脑子写谱会很舒服
&clock_count=4
&inote_5=(148)
{1},
{1},
{8}3/6xb,3,3/4,3,3/8,3,3/2,3,3-5-2-6-1[8:4]/A7h[4:3]/D8h[8:6],,,,,,,,
{8}6/3,6,6/5,6,6/1,6,6/7,6,6-4-7-3-8[8:4]/A2h[4:3]/D3h[8:6],,,,,,,,
1/8xh[128:1],1,1/3,1,1/7,1,1/4,1,1-5-3-7-2[8:4]/A6h[4:3]/D6h[8:6],,,,,,,,
8/1,8,8/6,8,8/2,8,8/5,8,8-4[8:1]/3h[4:1],,,,
{16}5,3,6,4,3/7,,,,
{8}2/5b,3,1/4,3,2/6,3,4/8,3,7>5[4:1]/2h[4:1],,,,1-4[8:1],1h[8:2],
,,
7/4,6,8/5,6,7/3,6,5/1,6,2<4[4:1]/7h[4:1],,,,8-5[8:1],8h[8:2],
,,
3/6b,4,2/5,4,3/7,4,5/1,4,8<3[4:1]/3h[4:1],,,,2-5[8:1],1h[8:2],
,,
6/3,5,7/4,5,6/2,5,4/8,5,1-5[8:1]/6h[4:1],,,,
{16}4,6,3,5,6/2,,,,
{16}7b/3xh[8:3],,,4,,,5,,7/2h[8:3],,,4,,,5,,7/1h[8:3],,,4,,,5,,7<4[8:1],,8,,,,,,
2/6h[8:3],,,5,,,4,,2/7h[8:3],,,5,,,4,,2/8h[8:3],,,5,,,4,,E2h[4:1],,Ch[8:1],,,,,,
7/3h[16:3],,,4,3,,6,,7/2h[16:3],,,4,2,,6,,7/1h[16:3],,,4,1,,6,,7p3[8:1],,8,,,,,,
2/6h[16:3],,,5,6,,3,,2/7h[16:3],,,5,7,,3,,2/8h[16:3],,,5,8,,3,,
2,2,8h[4:1],,E3,E4,E5,,
{4}8<2[4:4],,B3h[4:1],,E2h[4:1],,
{8}8-3[8:1],8-5[8:1],,,
{4}1>7[4:4],,B6h[4:1],,E8h[4:1],,
{8}1-5[8:1],8,1,,
{16}7h[16:3],,,5,6,,4,,6,5,,5,6,,4/7,,2h[16:3],,,4,3,,5,,3,4,,4,3,,5/2,,
{16}1,6,1,6,2,6,2,6,3,6,3,6,4,6,4,6,5,6,7,6,8,6,1,6,2xb,3,4/5,6,7xb/2b,,,,
{16}E7h[4:1],,,,3,5,4,6,4,5,3,5,4,6,4,5,
E3h[4:1],,,,6,4,5,3,5,4,6,4,5,,,,
{16}2b/6b,,,3,4,,7,,4-8[8:1],5,,3,4,,1,,4-8[8:1],6,,3,4,,1,,4-8[8:1],7,,3,4,,1,,
7/3,,,6,5,,2,,5-1[8:1],4,,6,5,,8,,5-1[8:1],3,,6,5,,8,,5-1[8:1],2,,6,5,,8,,
2b/6b,,,3,4,,7,,4-8[8:1],5,,3,4,,1,,4-8[8:1],5,,2,4,,1,,4-8[8:1],5,,1,4,,2,,
7/3,,,6,5,,2,,5-1[8:1],4,,6,5,,8,,7bh[4:2]/3b-8[8:1],,,,,,,,1-5[8:1]b,2,3,4,5/1,,,,
2b/7h[16:3],,,5,6,,2h[8:1],,4>1[8:1],3,,5,4,,6,,4>1[8:1],2,,5,4,,7,,4>1[8:1],1,,5,4,,8,,
7b/3h[16:3],,,4,3,,7h[8:1],,5<8[8:1],6,,4,5,,3,,5<8[8:1],7,,4,5,,2,,5<8[8:1],8,,4,5,,1,,
3b/7h[16:3],,,5,6,,2h[8:1],,4>1[8:1],3,,5,4,,8,,5>2[8:1],3,,6,5,,8,,6>3[8:1],3,,7,6,,8,,
7b/2h[16:3],,,4,3,,7h[8:1],,5<8[8:1],6,,4,5,,1,,6bh[4:2]/2b-5[8:1],,,,,,,,7-3[8:1]b,8,1,2,3/7,,,,
{8}2xb-4[8:1],2,8-6[8:1],8,1-5[8:1],1,7,7h[8:5],,E8`B8,E3`B3,E6`B5,4-8[8:1],4>1[8:1],,,
7-5[8:1],7,1-3[8:1],1,8-4[8:1],8,2,2h[8:5],,E2`B1,E7`B6,E4`B4,5-1[8:1],5<8[8:1],,,
3xb-5[8:1],3,7-3[8:1],7,2<7[8:1],2,6,6h[8:5],,E8`A8,E3`A2,E6`A5,4-8[8:1],2>5[8:1],,,
7x-1[8:1],7,3-7[8:1],3,6>3[8:1],6,2,2h[8:5],,E4`A4,E7`A6,E2`A1,
{32}A7/D8,D7,A6,D6,A5,D5,A4,D4,A3/C,,,,,,,,
{16}1b/5h[8:3],,,4,,,7,,2/6h[8:3],,,5,,,8,,3/7h[8:3],,,6,,,1,,2q6[8:1],,3,,,,,,
8/4h[8:3],,,5,,,2,,7/3h[8:3],,,4,,,1,,6/2h[8:3],,,3,,,8,,E8h[4:1]/E7h[4:1],,E4h[8:1]/E3h[8:1],,,,,,
1/5h[16:3],,,4,5h[8:1],,7,,2/6h[16:3],,,5,6h[8:1],,8,,3/7h[16:3],,,6,7h[8:1],,1,,3v6[8:1],,4,,,,,,
8/4h[16:3],,,5,4h[8:1],,2,,7/3h[16:3],,,4,3h[8:1],,1,,6/2h[16:3],,,3,2h[8:1],,8,,1,1,7h[8:1],,B1,C,B5,,
{4}8<5pp4[4:4]/A2h[8:14]/A3h[8:12]/D3h[8:13],,,,,,
{8}E4,B6,E8,,
{4}1>4qq5[4:4]/A7h[8:14]/A6h[8:12]/D7h[8:13],,,,,,
{8}E6,B3,E2,,
{16}2h[16:3]/6,,,4,3,,6h[8:1],,5-1[8:1],6,,6,5,,7,,7h[16:3]/3,,,5,6,,3h[8:1],,4-8[8:1],3,,3,4,,2,,
{16}7,5,6,5,8,5,6,5,1,5,6,5,2,5,6,5,1,5,8,4,7,3,6,2,
{32}5xb,4x,3x,2x,1x,8x,7x,6x,
{4}C/5x,
{16}E3h[4:1],,,,6,5,5,4,5,5,6,5,5,4,5,5,
E7h[4:1],,,,3,4,4,5,4,4,3,4,4,5,4,4,
D3h[4:1],,,,5,5,6,5,5,4,5,5,6,5,5,4,
D7h[4:1],,,,4,4,3,4,4z8[8:1]b,5,4,4,,,,,
{16}7xbh[16:3]/3xb,,,5,6,,1/7,,
{32}2/5>1[8:1],3,
{16}4,,7,7,,6,,
{32}2b/5-1[8:1],3,
{16}4,,7,7,,6,,
{32}2/5p8[8:1],3,
{16}4,,7,7,,6,,
{16}2bh[16:3]/7b,,,4,3,,8/2,,
{32}7/4<8[8:1],6,
{16}5,,2,2,,3,,
{32}7b/4-8[8:1],6,
{16}5,,2,2,,3,,
{32}7/4q1[8:1],6,
{16}5,,2,2,,3,,
{16}7bh[16:3]/2b,,,5,6,,1/7,,
{32}2/5>1[8:1],3,
{16}4,,7,7,,8,,
{32}7b/4x<8[8:1],6,
{16}5,,2,2,,1,,
{32}2/5x>1[8:1],3,
{16}4,,7,7,,8,,
{16}2bh[16:3]/7b,,,4,3,,8/2,,
{32}7/4<8[8:1],6,
{16}5,,2,2,,1,,2b-5[8:1]/6b-1[8:1],,,,6/2,,,,
8/4,7/3,6/2,5/1,8/4,,,,
{16}7xbh[16:3]/3xb,,,4,5,,1/6,,
{32}2/5>1[8:1],3/6,
{16}4/7,,8x,8x,,7,,
{32}2b/5p1[8:1],3/6,
{16}4/7,,8x,8x,,7,,
{32}2/5p8[8:1],3/6,
{16}4/7,,8x,8x,,7,,
{16}2bh[16:3]/6b,,,5,4,,8/3,,
{32}7/4<8[8:1],6/3,
{16}5/2,,1x,1x,,2,,
{32}7b/4q8[8:1],6/3,
{16}5/2,,1x,1x,,2,,
{32}7/4q1[8:1],6/3,
{16}5/2,,1x,1x,,2,,
{16}7bh[16:3]/3b,,,4,5,,1/6,,
{32}2/5>1[8:1],3/6,
{16}4/7,,8x,8x,,7h[8:1],,
{32}4b<8[8:1],6/3,
{16}5/2,,1x,1x,,2h[8:1],,
{32}5>1[8:1],3/6,
{16}4/7,,8x,8x,,7,,
{16}2bh[16:3]/6b,,,5,4,,8/3,,
{32}7/4<8[8:1],6/3,
{16}5/2,,1x,1x,,2,,
7bv4[8:1]b/3bv8[8:1]b,,,,3/7,,,,
1p4[16:3]b/5p8[16:3]b,2/6,3/7,4/8,1/5,,,,
E
