&title=PAИAGIA
&artist=BlackY
&first=0
&des=PointSkiP
&lv_5=14.6
&des_5=PointSkiP
&inote_5=
(185){4}1>1[2:3],,,,{1}C,
1-3-5-7-1[2:3],
C,
{12}2,3,4,7,6,5,B2,B3,B4,B7,B6,B5,
3,4,B2,6,5,B7,B4,B3,B2,B5,B6,B7,
4,3,2,5,6,7,B3,B2,B1,B7,B6,B5,
E2,6,4,5,3,6,4,3,5,3,7,6,
4/5,3,2,1/8,7,6,3,5,3,6,4,6,
2,7,1,8,2,7,3,6,4,{48}5x,,,4x,,,{16}5x,4x,
{8}6b/3h[4:7],,,6,,,{4}6,
{8}7,,,6,,,6,{16}4,5,
{8}3b/6h[1:1],,,3,,,{4}3,
3-5[8:1],{8}7,8-4[8:1],,8/1,,,5b/3h[1:1],
,,5,,,5,{16}8,7,
{8}6h[1:1],,,4,,,4,{16}1,2,
{4}3h[1:1],4,5,6,
7-4[8:1],{8}2,1-5[8:1],,1/8,{16},,,,1,
2,3,4,6,7,8,1,4,3,2,1,7,6,5,4,
{12}1x,1,1,2x,2,2,3x,3,3,4x,4,4,
{8}Cf,{16}6,5,{8}6,{16}3,4,{8}3,{16}7,8,{8}7-4[8:1],8x/6x,
{4}7/3-1[8:1],3/8z4b[8:1],{2}8/4,
{8}7/2,{16}6,5,{8}6,{16}3,4,{8}3,{16}6,7,{4}6-2[8:1],
6/7-4[8:1],7/1s5b[8:1],1/5,{16}7b-3b[0.3243##0.0721],8,6,1,
(277.5),Cf,,,,,,,,,{8}1b-5b[12:1],,8-4[12:1],
,3,{4}2b-6b[12:1],{2}2/5h[5:3],
{8},3b-8b[12:1],,7-4[12:1],,2,{16},1h[8:1],,,,(185)E2,
B2,B3,E4,5,6,7,8,E5,B4,B3,E3,8,7,6,
5,(277.5)4/2-5[12:1],,,,2/6-1[12:1],,,,6,,,,4,{48},5,,,,6,
,,,{16}7,{48},8,,,,1,,,,{16}2,{48},3,,,,(185)4/5,,,,,,2,,,4,,,3,,,,,,7,,,5,,,6,
,,,,,2,,,4,,,3-8[8:1],,,,,,2x/4x,,,,,,7-5[8:1],,,,,,,,,,,,2w6b[8:1],,,,,,,,,,,,A2,
{4},{16},,,{24},{48}4/5,,,,,,6,,,5,,,7,,,,,,3,,,4,,,2,
,,,,,6,,,5,,,7v4[4:1],,,,,,,,,,,,4<8[4:1],,,,,,,,,3h,,,,,,,,,2h[9:1]/A8,,,,,,,,,,,,,,,,,,3b,
,,{24}4,{48},3,,,4,,,2,,,{24}6,{48},2,,,6,,,8,,,{24}7,{48},8,,,7,,,1,
,,{24}5,{48},1,,,5,,,2,,,{24}4,{48},2,,,4,,,3,,,{24}5,{48},3,,,5,,,4,,,{24}6,{48},4,,,6,,,5,
,,{24}7,{48},5,,,7,,,2,,,{24}8,{48},2,,,8,,,2,,,{24}6,{48},2,,,6,,,2,,,{24}4,{48},2,,,4,,,2,
,,{24}6,{48},2,,,6,,,2,,,{24}5,{48},3,,,6,,,4,,,{24}7,{48},4,,,7,,,2,,,{24}5,{48},2,,,5,,,1,
{240},,,,,,,2,,,,,,,,,,,,3,,,,,,,,,,,,4,,,,,,,,,,,,5,,,,,,,,,,,,{48}8,{240},,,,,,,1,,,,,,,,,,,,2,,,,,,,,,,,,3,,,,,,,,,,,,4,,,,,,,,,,,,{48}5b/1b,,,,,,3,,,3,,,4,,,,,,2,,,2,,,8-4[8:1],
,,,,,,,,,,,1/8,,,,,,,,,,,,1b/8b,,,,,,2,,,2,,,5,,,,,,3,,,3,,,8-6-4[8:1],
,,,,,,,,,,,8b/C,,,,,,,,,,,,3b/5b,,,,,,4,,,4,,,6,,,,,,2,,,2,,,8q4[8:1]*p4[8:1],
,,,,,,,,,,,8b,,,,,,,,,,,,2b/8b,,,,,,3,,,3,,,1,,,,,,2/8,,,3/7,,,4-1[8:1]/6-1[8:1],
,,,,,,,,,,,4b/6b,,,,,,,,,,,,1b/8b,,,,,,6,,,6,,,5,,,,,,7,,,7,,,1-6[8:1]*-4[8:1],
,,,,,,,,,,,1b,,,,,,,,,,,,4b/8b,,,,,,7,,,7,,,4,,,,,,6,,,6,,,1>2>3<4b[8:1],
,,,,,,,,,,,5,{96},6,,,7,,,8,,,,,,,,,,,,,,,{48}2x,,,{24}3,{48},4,,,5/8x,,,7,,,{24}6,{48},5/3x,,,2,,,1,
,,{24}8/7x,{48},6,,,5,,,4/2x,,,{24}3,{48},4,,,5,,,6/8h[4:1],,,,,,,,,,,,,,,,,,4/2h[4:1],,,,,,,,,,,,,,,,,,A2,
{96},B2f,,,{24}C,{48},,,,,,,4/E7,,,,,,,,,,,,4/E8,,,,,,,,,,,,5/E7,
,,,,,,,,5,,,E8,,,,,,4,,,,,,4/E7,,,,,,,,,5,,,E8,,,,,,,,,,,,5x/7x,
,,,,,,,,,,,4/6,,,,,,,,,,,,5/E3,,,,,,,,,,,,5/E2,,,,,,,,,,,,4/E3,
,,,,,,,,4,,,E2,,,,,,5,,,,,,5/E3,,,,,,,,,4,,,E2,,,,,,,,,,,,2x/4x,
,,,,,,,,{6}3/5,{48},4/6,,,,,,Cf,,,,,,,,,,,,2>4[8:1],,,,,,,,,,,,7h[9:1],
,,,,,,,,,,,8,,,,{16}8,{48},8h[7:1],,,,7h[7:1],,,,,,,,6h[7:1],,,,,,,,{16}5h[7:1],{48},,,,,6h[7:1],
,,,,,,,7h[7:1],,,,,,,,{16}8h[7:1],{48},,,,,1h[4:1],,,,,,,,,,,,7x,,,,{16}7,{48},7,,,,4x,
,,,{16}4,{48},4,,,,7x,,,,{16}5,{48},6,,,,2x,,,,{16}4,{48},3,,,,5x,,,,{16}6,{48},7,,,,8x/1x,
,,,{16}2,{48},3,,,,4x/5x,,,,{16}4h[8:1]/5h[8:1],{4},,{16},{24},{48}4,
,5,,4,,5,,4,,5,,4-8[8:1],,5,,4,,5,,4,,5,,4>3>2<1<8<7<6>5>4v7v4[1:3]*<5<6<7>8>1>2>3<4v1v4b[1:3],{1},,,{4},,,{16},,,{24},{48}3-8-5-2-7[4:11],
{4},{16},,,{24},{48}A6h[2:1],
{4},,,{16},,,{24},{48}3x-6-1-4-7b[4:5],
{1},,{4},{16},,,{24},{48}6v1[8:1],
,,,,,5,,,,,,3h[4:1]/A6,,,,,,,,,,,,8xv3[8:1],
,,,,,,,,7,,,8v5b[8:1],,,,,,,,,,,,1h[8:3]/A8,,,,,,,,,,,,,,,,,,3h[8:5],,,,,,,,,,,,2b,
,,,,,,,,,,,,,,,,,1x<6[8:1],,,,,,2,,,,,,3x/A1,,,,,,,,,,,,4-8[8:1],
,,,,,,,,5,,,4,,,,,,6h[8:9],,,,,,B1,,,,,,,,,,,,,,,,,,B2/B3/E3,,,,,,,,,,,,E4,
,,,,,,,,,,,,,,,,,3bx,{4},{16},,,{24},{48}7h[16:1]/1h[16:1],
,,,,,,,3h[16:1]/4h[16:1],,,,,,,,{16}4h[16:1]/5h[16:1],{48},,,,,7h[16:1]/5h[16:1],,,,,,,,4h[16:1]/5h[16:1],,,,,,,,{16}2h[16:1]/4h[16:1],{48},,,,,1h[16:1]/8h[16:1],
,,,,,,,7h[16:1]/5h[16:1],,,,,,,,{16}6h[16:1]/4h[16:1],{48},,,,,5b/3b,,,,,,,,,,,,3,,,{24}4,{48},3,,,4,,,3,
,,{24}4,{48},3,,,4,,,2,,,{24}5,{48},1,,,6,,,8,,,{24}7,{48},8,,,7,,,1,,,{24}6,{48},2,,,5,,,3,
,,{24}4,{48},3,,,{6}4,{48},,,,,,,6,,,{24}5,{48},7,,,5,,,6h[8:1],,,,,,3,,,4,,,2,
,,{24}4,{48},3h[8:1],,,,,,7,,,{24}5,{48},6,,,5,,,7h[8:1],,,,,,2,,,4,,,3,,,{24}4,{48},2h[8:1],,,,,,Cf,
,,,,,,,,,,,7,,,{24}8,{48},7,,,6,,,7h[8:1],,,,,,2,,,1,,,2,,,{24}3,{48},2h[8:1],,,,,,6,
,,{24}5,{48},6,,,7,,,6h[8:1],,,,,,3,,,4,,,3,,,{24}2,{48},3h[8:1],,,,,,E4f,,,{24}B4,{48},B5,,,E6,,,6x,
,,{24}5,{48},7,,,5,,,8h[8:1],,,,,,2x,,,1,,,3,,,{24}1,{48},4h[8:1],,,,,,6x,,,{24}5,{48},6,,,7,,,6h[8:1],
,,,,,2x,,,1,,,2,,,{24}3,{48},2h[8:1],,,,,,,,,,,,,,,,,,3b,,,{24}4,{48},2,,,4,,,1h[8:1],
,,,,,7b,,,8,,,6,,,{24}8,{48},5h[16:3],,,,,,1h[16:1],,,,,,3h[16:1]/4h[16:1],,,,,,,,,,,,2h[16:1]/8h[16:1],,,,,,5h[16:1]/6h[16:1],
,,,,,,,,,,,5h[4:1]/1-3-5-7-1>3<5<7>1[4:7],{96},,,,B1,,,Cf,,,{48}B5,{1},,{4},{16},{24},{48}1x,
,,{24}2,{48},3,,,4,,,5,
,,{24}6,{48},7,,,8,,,1x,,,{24}8,{48},7,,,6,,,5,,,{24}4,{48},3,,,2,,,1,,,{24}8,{48},7,,,6,,,5-8b[8:1]/4-1b[8:1],
,,,,,,,,,,,4/5/D7/E7/B6/Cf/B3/E3/D3,,,,,,,,,,,,1x-6[8:1],,,{24}8,{48},2,,,7,,,1-4[8:1],,,,,,5,,,5,,,1-7[8:1],
,,,,,7,,,7,,,1-3[8:1],,,,,,4,,,4,,,1<7[8:1],,,,,,5,,,5,,,1-4[8:1],,,,,,,,,,,,7x/1-6b[8:1],
,,,,,,,,,,,1/3x,,,,,,,,,,,,4,,,{24}3,{48},2,,,1,,,4b/8-2b[8:1],,,,,,5,,,5,,,8-3[8:1],
,,,,,6,,,6,,,8-4[8:1],,,,,,7,,,7,,,8,,,,,,8bx,,,,,,1,,,{24}2,{48},8,,,7,,,2,
,,{24}3,{48},7,,,6,,,Cf,,,,,,,,,,,,8-3[8:1],,,{24}1,{48},7,,,2,,,8x-5[8:1],,,,,,4,,,4,,,8-2[8:1],
,,,,,2,,,2,,,8-6[8:1],,,,,,5,,,5,,,8,,,,,,4,,,4,,,7-4[8:1],,,,,,,,,8,,,7,
,,,,,3x,,,,,,1,,,{24}8,{48},1,,,8,,,2,,3,,4,,8,,7,,6,,4,,,{24}5,{48},4,,,5,,,3,
,2,,1h[8:1],,5,,6,,7,,8,,B1/Cf/B5,,,,,,,,,,4,,,{24}5,{48},4,,,5,,,2h[16:1]/E6,,,,,,,,,{12}7h[16:1]/B4,
{48},,,,,1/C,,,,,,1b,,,,,,,,,,,,2,,,{24}1,{48},3,,,8,,,2-5[8:1],,,,,,,,,1,,,2,
,,,,,6x,,,,,,8h[16:3]/7-4[8:1],,,,,,,,,7,,,8,,,,,,3x,,,,,,E8,,E7,,E6,,E1,,E2,,E3,,7x,
{96},6x,,,5x,,,4x,,,{48}8x,{96},1x,,,2x,,,3x,,,{48}8x/4x-8[8:1],,,,,,,,,5,,,4,,,,,,7x,,,,,,1>4[8:1],,,,,,,,,7,,,1,
,,,,,8x,,,,,,1/5x,,,{24}4,{48},3,,,2,,,1x/5>1b[4:1],,,{24}8,{48},7,,,6,,,5x/1,,,{24}8,{48},7,,,6,,,5/A1fh[8:1],
,,,,,,,,,,,7b,{240},D7,,,,,,A6,,,,,,D6,,,,,,A5,,,,,,,,,,,,,,,,,,3b,,,,,,D3,,,,,,A2,,,,,,{48}D2,{240},A1,,,,,,,,,,,,,,,,,,6b,,,,,,{48}E7,{240},B7,,,,,,B8,,,,,,E1,,,,,,,,,,,,,,,,,,2b,,,,,,E3,,,,,,B3,,,,,,B4,,,,,,{48}E5,{240},,,,,,,,,,,,,1b,,,,,,D1,,,,,,{48}A8,
{240},D8,,,,,,A7,,,,,,,,,,,,,,,,,,{48}4b,{240},D4,,,,,,A3,,,,,,D3,,,,,,A2,{16},{64},{192},{24}8h[16:1]/B3f,,,{12}2h[16:1]/E7f,{48},,,,,6h[16:1]/E2f,,,,,,,,,{24}4h[16:1]/E6f,{48},,,,,,,8h[16:1]/B5f/E5,
,,,,,,,,{6}2h[16:1]/E7f/B7,{48},,,,,,,3,,,{24}7,{48},1,,,5,,,4,,,{24}6,{48},2,,,8,,,1,
,,{24}5,{48},8,{96},7,,,6,,,5,,,{48}4x/8x,{96},3/7,,,2/6,,,5/1,,,{48}8h[16:3]/4h[16:3],{4},{16},,{24},2h[32:9]/5h[32:9],{48},,,,,,,,,,,,,,,,,,,3b-5-7-1-3-5<6<7>8>1>2>3<4<5[2:7]/6b-8-2-4-6b[12:25],
{1},,,{4},,,{16},,,{24},{48}6h[1:1],
,,,,,,,,,,,,,,,,,B6,,,,,,,,,,,,B4,,,,,,,,,,,,,,,,,,3h[12:5],
,,,,,,,,,,,5,,,,,,5,{4},,{16},{24},{48}6h[3:2],
,,,,,,,,,,,,,,,,,4,{4},{96},3,{4},{16},{64},{192},{48}2h[4:1]/5h[4:1],
{4},{16},,{96},E3/E5,{16},,,{64},,,{192},{96}E4/E6,{4},{16},{64},{192},{48}C,
,,,,,6,,,5,,,6,,,,,,3,,,4,,,3,,,,,,7,,,8,,,7-4[8:1],
,,,,,6x/8x,,,,,,7/3-1[8:1],,,,,,,,,,,,3/8z4b[8:1],,,,,,,,,,,,4/A8f,{4},{16},,,{24},{48}7/2,
,,,,,6,,,5,,,6,,,,,,3,,,4,,,3,,,,,,6,,,7,,,6-2[8:1],
,,,,,,,,,,,6/7-4[8:1],,,,,,,,,,,,7/1s5b[8:1],,,,,,,,,,,,5/A1f,{4},{16},,,{24},{48}4/5,
,,,,,2,,,4,,,3,,,,,,7,,,5,,,6,,,,,,2,,,4,,,3-8[8:1],
,,,,,2x/4x,,,,,,3/7-5[8:1],,,,,,,,,,,,7/4z8b[8:1],,,,,,,,,,,,8/A4f,{4},{16},,,{24},{48}4/5,
,,,,,7,,,5,,,6,,,,,,2,,,4,,,3,,,,,,7,,,5,,,6-1[8:1],
,,,,,5x/7x,,,,,,2b/6,,,,,,,,,,,,7x,{96},,,,,,,7/8,,,{48}6,{96},5,,,{48}4,,,,,,,,,1b/2b,{96},3,,,4,,,5,{4},{64},{192},{48}8,
,,{24}7,{48},8,,,7,,,1,,,{24}6,{48},1,,,6,,,2,,,{24}5,{48},2,,,5,,,3,
,,{24}4,{48},3,,,4,,,2,,,{24}1,{48},2,,,1,,,3,,,{24}8,{48},3,,,8,,,4,,,{24}7,{48},4,,,7,,,5,
,,{24}6,{48},5,,,6,,,3-8[16:1],,,{24}4,{48},3,,,4,,,3,,,,,,6-1[16:1],,,5,,,6,,,{24}5,{48},6,,,,,,3,
,,{24}4,{48},2,,,5,,,1,{96},2,,,3,,,4,,,{48}5,{96},6,,,7,,,8,,,{48}1,{96},2,,,3,,,4,,,{48}5,{96},6,,,7,,,8,,,{48}1,{96},2,,,3,,,4,,,{48}5,{96},6,,,7,,,8,,,{48}1/6,
{96},2/7-4-8-3b[1:2],,,3/8,,,4,
E
