&title=Revenger
&artist=Sampling Masters AYA
&first=0.100
&des=谁喜欢韩系
&clock_count=4
&wholebpm=192.000
&lv_5=14
&des_5=
&inote_5=(192)
{8}2b/5b,,3,3,4-7[8:1],,,,6b/4b,,6,6,5-1[8:1],,,,
3b/8b,,2,2,1-6[8:1],,,,7b/1b,,7,7,8>3[8:1],,,,
56,,78,,56,,78,,54,,71,,54,,71,,
34,,12,,34,,12,,1,1,2,2,4,3,4/6b,,
1-4[8:1],,5,,1-4[8:1],,3,,
1-4[8:1],8,7,6,1-4[8:1],2,3,,
5-8[8:1],,1,,5-8[8:1],,7,,
5-8[8:1],4,3,2,5-8[8:1],6,7,,
1-4[8:1],,5,,1-4[8:1],,3,,
1-4[8:1],8,7,6,1-4[8:1],2,3,,
5-2[8:1],,6,,6,2,7s3[4:1],,1h[2:1],,,,4,4,2,2,
8-5[8:1],,18,,8-5[8:1],,78,,
8-5[8:1],1,8,2,8-5[8:1],,78,,
4-1[8:1],,54,,4-1[8:1],,34,,
4-1[8:1],5,4,6,4-1[8:1],,34,,
8-5[8:1],,18,,8-5[8:1],,78,,
8-5[8:1],1,8,2,8-5[8:1],,78,,
4-1[8:1],,54,,4-1[8:1],,34,,
2z6[4:1],,,,8,8,5,5,
7b,2/6V84[4:1],,1,1,,
3-1[8:1],,4-6[8:1],,2V41[4:1],,1b-5[8:1],,,,
7b,2/6V84[4:1],,1,1,,
2-6[8:1],,5-8[8:1],,5V36[4:1],,6b-2[8:1],,,,
3b,6/2V48[4:1],,5,5,,
7-5[8:1],,1-3[8:1],,8>7[8:3],,8,,1,,
4-2[8:1],5,4,,4-7[8:1],
3,4,,4-1[8:1],4,5,,
7-5[8:1]/8-5[8:1],,,,24,
3h[16:1],3,4,3h[16:1],3h[16:1],3h[16:1],3h[16:1],3,
24,3h[16:1],3,4,2,35,6,57,
6h[16:1],6,5,6h[16:1],6h[16:1],6h[16:1],6h[16:1],6,
5,6h[16:1],6,5h[16:1],5,6,6,
24,
3h[16:1],3,4,3h[16:1],3h[16:1],3h[16:1],3h[16:1],3,
24,3h[16:1],3,4,2,35,6,47,
5h[16:1],5,6,5h[16:1],5h[16:1],5h[16:1],5h[16:1],
5/7b,2b,5b,3,6b,8b,4b,2,
6-3[2:1],,4,,4,,2,,6-3[2:1],,4,,4h[16:1],,2,,
7b-2[2:1],5,5,5,5,5,5,5,
6-3[8:1],6,7-2[8:1],7,6-3[8:1],6,1b,1,
{16}8b,7,6,5,4,3,2,1,
7,,7,,2,,2,,
8b,7,6,5,4,3,2,1,
3,,3,,6,,6,,
8b,7,6,5,4,3,2,1,
7b,,7,,2,,2,,
8b,7,6,5,4b,3,2,1,
{24}7b,6,5,3,2,1,7,6,5,3,2,1,
{8}7,6,25,3,47,6,35,2,81,7,26,7,48,7,26,3,
47,6,25,3,47,6,35,2,17,6,15,2,
{16}3,4,3,,6,5,6,,
{8}5-2[8:1],,6-1[8:1],,5-2[8:1],,6-1[8:1],,
5-2[8:1],5,6-1[8:1],6,3,3,3/4b,,
2h[4:1],4,5h[4:1],3,2h[4:1],4,5h[4:1],3,
2h[4:1],3,5h[4:1],4,
{16}3b,4,3,,7b,8,7,,
{8}1>4[8:1],,5,,6<1[8:1],,56,,2>5[8:1],,12,,
6-2[8:1],7,6,,
8<5[8:1],,4,,3>8[8:1],,43,,7<4[8:1],,87,,
2-5[8:1],1-6[8:1],2,1,
3-8[8:1],3,7,7,6-4[8:1],6,1,1,
3-8[8:1],3,7,7,6-2[8:1],5,6b,3,
14,8,72,6,15,2,37,4,
56,56,47,47,
{16}8,3,8,3,1,2,1,2,
{8}8b-5[2:1],8,4,,3,,2b,,1-4[2:1],1,5,,6,,7b,,
5b-8[2:1],5,1,,2,,3b,,4-1[2:1],4,8,,7,,6b,,
5-8[8:1],,35,,4-1[8:1],,46,,5-8[8:1],,35,,4-1[16:1],,46,,
16,2,37,6,52,3,46,5,
{16}43,2,1,8,7,6,5,4,
8b-4[8:1],,2,,8b,,,,
{1}3/5,,,,
{8}3h[8:1],,,,,,,5h[8:1],,,4,,,,,,
6h[8:1],,,,,,,4h[8:1],5b-1[4:1],,,,,,
{16}2,8,3,7,
4h[16:3],,,6h[16:3],,,5h[16:3],,,8,,,5,5,7,,
6h[16:3],,,3h[16:3],,,4h[16:3],,,1,,,4,4,2,,
2h[16:3],,,6h[16:3],,,5h[16:3],,,8,,,5,5,7,,
7h[16:3],,,3h[16:3],,,4h[16:3],,,1,,,4,4,2,,
2<7[4:1],,,,6,,,,4,,,,6,,,,7>2[4:1],,,,3,,,,5,,,,3,,,,
3p6[4:1],,,,6,,,,4,,,,6,,,,
7,6,5,4,1,2,3,4,6,7,8,1,5,4,3,2,
8b,,5,6,,,47,,3,4,,4,2,,17,,
6,,3,4,,,28,,7,7,,4,4,,35,,
1b,,4,3,,,52,,6,5,,5,7,,82,,
3,,6,5,,,71,,2,2,,5,5,,64,,
2b<6[4:1],,,,6>2[4:1],,5,,1-5[8:1],,,,1b,,,,
7b>3[4:1],,,,3<7[4:1],,4,,8-4[8:1],,,,8b,,,,
3b>7[4:1],,,,7<3[4:1],,5,,1-5[8:1],,,,1b,,,,
7,6,5,4,1,2,3,4,8,7,6,5,2,,53,,
6,,7,5,7,,4,,6,5,6,5,6,,7,,3,4,3,4,2,5,2,5,3,,6,5,6,,4,,
7,6,5,4,2,3,4,5,7,6,5,4,2,3,4,5,
7,6,3,4,6,5,2,3,7,6,3,4,6,5,2,3,
8b-4[8:1],,,,3,,1b-5[8:1],,,,6,,7b-3[8:1],,,,2,,
1h[4:1],,,,,,1/5b,6,7,8,2b,3,4,5,
1b-5[8:1],,,,6,,8b-4[8:1],,,,3,,2b-6[8:1],,,,7,,
8h[4:1],,,,,,8/4b,3,2,1,7b,6,5,4,
{8}1b-5[8:1],8,7,6b-1[8:1],4,3,2b-5[8:1],8,7,
6b-2[8:1],4,3,1b>4[8:1]*<6[8:1],,1b,,
8b-4[8:1],1,2,3b-8[8:1],5,6,7b-4[8:1],1,2,
3b-7[8:1],5,6,
{32}8b,1,2,3,4,5,6,7,8,1,2,3,4,5,6,7,8b-4[1:1]/2b-6[1:1],
