&title=有明/Ariake
&artist=SIINCA
&first=0.02
&des=Queen of Black Rose -Rebirth
&des_5=Queen of Black Rose-Rebirth
&lv_5=14+
&inote_5=(190){4},,,,{2}3h[1:2],
5>1[1:1],
,,8h[1:2],
2<5[1:1],
,,4h[1:2],
1>7[1:1],
,,8h[2:1],
6<4[1:1],
{1}5h[4:3],
{2}5/6<1[4:1],{8}3,2,1,8,
{2}5/6<1[4:1],{8}3,2,1,8,
{2}5/6<1[4:1],{8}3,2,1,8,
6/5,5,6,4,5,3,{4}3/4,
5/2>5[4:1],6,{8}6,7,8,1,
{4}2>5[4:1],5,{8}6,7,8,1,
{4}2>5[4:1],5>2[4:1],{8}6,7,{4}8h[4:3],
1<4[2:1],,,8,
{32}7/3,2/6,5/1,8/4q6[32:115]*-1[32:45],{1},{4},,,{16},,{4}8h[8:3],
,,1h[8:3],
,,{2}2-5[8:1],
{8}7h[8:3],,,5h[8:3],,,{4}4h[8:3],
{8},2h[8:3],,,{2}1<5[4:1],
{8}1h[8:3],,,3h[8:3],,,{4}5h[8:3],
{8},7h[8:3],,,{4}8-4[8:1],8b/1b,
{8}2h[4:1],5,6,3h[4:1],5,6,4h[4:1],5,
6,3h[4:1],4,5,2h[2:1],3,4,5,
6h[4:1],3,4,6h[4:1],4,5,7h[4:1],5,
6,8h[4:1],6,7<4[8:1],1,1,8,8,
7-4[8:1],3,2,1-4[8:1],8,7,6-1[8:1],5,
4,3-6[8:1],2,1,8-4[8:1],7,{4}8,
{8}3-8[8:1],4,5,6-3[8:1],7,8,1-6[8:1],1,
2-5[8:1],2,1,8,7-3[8:1],6-4[8:1],7,6,
{4}2h[4:1],{8}4-1[8:1],{16}2,3,{8}5,6,{16}7,6,{8}5,
{4}3h[4:1],{8}1-4[8:1],{16}3,2,{8}8,7,{16}6,7,{8}8,
{4}5h[4:1],{8}2-5[8:1],{16}4,3,{8}6,7,{16}8,7,{8}6,
1h[8:1],{16}4,3,{8}7h[8:1],{16}5,6,{8}2,3/4,4/5,5/6,
7-4[8:1],7,8-4[8:1],8,1-4[8:1],1,2,2,
5<7[8:1],4>2[8:1],5-1[8:1],4-8[8:1],5-7[8:1],4-2[8:1],5,4,
{16}6,5,4,3,2,1,8,7,{24}6/2,3,4,5,6,7,8,1,2q8[3:2],3<7[8:5],{1},{16},{48},{4}1>4[8:1]/5<8[8:1],
1/5,{16}3,2,7,6,1,8,5,4,
2,3,6,7,4,5-1[48:5],8,1,5b>3[8:1],,,8,{8}5,8,
{16}7,6,3,2,5,4-8[48:5],1,8,4b<6[8:1],,,1,{8}4,1,
{16}2,3,5,6,7/3,8/4,1/5,6-3[8:1]/2-7[8:1],,,,,,,,,{4}8h[4:1],
{8}4,3,{32}7/1h[4:1],6,{16}5,{32},,,,,,,,2/8h[4:1],3,{16}4,
{32},,,,,,,,7/1h[4:1],6,5,4,,,,,,,,,2/8h[4:1],3,4,5,,,,,,,,,4/7,
3/6,{16}2/5,,,{8}1,1h[16:3],{32}3,4,{16}5,,,{8}2h[16:3],{32}4,5,{16}6,
,,{8}3h[16:3],{32}5,6,{16}7,,,{8}4h[16:3],{32}6,7,8,1,5,6,7,8,1,2,3,4,
{4}5b/1b<6[8:1],{8}5-2[8:1],5,7-4[8:1],7,,2,
1-6[8:1],3-7[8:1],1>5[8:1],3,1,6,{4}8h[4:1],
5>2[8:1],{8}1-6[8:1],1,3-8[8:1],3,,5,
4<7[8:1],8,4,{24}1,2,3,{4}4/8bw4[8:1],8b,
1h[4:1],{8}4-7[8:1],2-5[8:1],4,2,,8h[8:1],
6-2[8:1],7-4[8:1],6,7,1h[4:1],3,{4}3<1[4:3],
2h[8:1],3h[8:1],4h[8:1],{8}5>7[16:11],5,
{4}8h[8:1],6h[8:1],{2}4h[2:1],
{8}8-4[8:1],5,6,7,8-4[8:1],3,2,1,
8-4[8:1],5,6,7,8-4[8:1],3,{4}2,
{8}1>4[8:1],5,6,7,8<5[8:1],4,3,2,
1h[8:1],4h[8:1],3h[8:1],5h[8:1],2h[8:1],6h[8:1],3<7[8:1],7>3[6:1],
,,,,7-4[8:1],4,3,2,
1-4[8:1],4,5,6,7<2[16:3],3,{4}1s5[1:1],
{1}8z4[4:3],
{16},,3,7,2,6,1,5,2,6,{8}7/3,4/8,7/3,
5b/1b,{16}4,3,,4,,2,2,8,7,6,5,1h[16:3],,4,
{8}4,{16}3,8,4,7,5,6,2,5,3,4,1,2,3,4,
{8}8h[16:3],{16}5,5,,6,,4,4,7,1,6,2,5h[16:3],,3,
3,6,7,8,1,5,6,7,8,5,6,7,8,1,2,3,
{8}4b/8b,{16}1,1,,5,,3,3,1,8,7,6,2,5,3,
4,8,6,1,7,2,3,4,5,1,2,3,4,5,6,7,
{8}8/4,{16}1,1,,5,,7,7,5,4,3,2,4,3,2,
1,8,7,6,5,1,8,7,6,1/5,8/4,7/3,6/2,5/1,4/8,3/7,
{1}2bq8[4:9]/6bq4[4:9],
{8},,,,,,,,,,,,,3,
2,1h[8:7],
{4}8,7,6,5,
{8}4-7[8:1],2,{4}4b,{8}2-5[8:1],8,{4}2b,
{8}4-8[8:1]/7-4[8:1],6,{4}4b/7b,{8}2-5[8:1]/5-8[8:1],1/4,{4}2b/5b,
{8}3b>8[8:1],8-4[8:1],3b,7,6b<1[8:1],1-5[8:1],6b,2,
3b,{24}3,4,5,6,7,8,{96}1,,,2,,,{32}3,4,{4}5bw1[8:1],5b,
{1}3b/7b,
,{48}1/8,
7/2,6/3q6[48:91],4/5,{1},,{96},{32}7>6[32:57],
{1},{4},,,{16},,{32},1pp2[2:3]*qq8[2:3],
{1},,{16}3>7[16:23]/7<3[16:23],
{1},{4},,,{8},2h[2:1],
5,6,7,{4}8-4[8:1],{8}4,3,
2,2,4,3,5,4,6,6,
5<8[8:1],4,3,2,1>4[8:1],8,7,6,
5,3b/7b,,6/1,{4}4b/3b,5/4,
6>2[4:1],{8}2<6[4:1],1,{4}8b,2,
4<8[4:1],{8}8>4[4:1],1,{4}2b,8,
{8}6,5b/7b,,2/4,{4}1b/5b,{8}2/8,3/7,
{4}6/4h[16:11],5,{16}3,2,1,8,7,6,5,4,
{2}1/3pp6[4:3],{8}8,1,{4}2,
{8}3pp6[4:3],3,,6,7,8,{4}1,
{8}1qq6[4:3],,,5,4,3,{4}2,
1>5[4:1],5<1[4:1],{2}1w5[8:1],
3-1[8:1]/7-5[8:1],2-4[8:1]/6-8[8:1],
{8}1-6[8:1]/5-2[8:1],5/1,,,1-4[8:1]/5-8[8:1],1/5,,,7/3-8[8:1],
4,{4}3/5,{8}2/6-1[8:1],5,{4}6/4,
{8}2/8-4[8:1],1,8/7,6,7/1-5[8:1],8,1/2,3,
4b/6b,{16}2,1,{8}2,3b/7b,{16}2,1,{8}2,4b/6b,{16}2,7,
1,8,2,7,4,5,3,6,{24}2b,3,4,7,{96},,,,,,,,{32}3b,4,5,6,7,8,1,2,
{8}3b/5b,{16}7,8,{8}7,2b/6b,{16}7,8,{8}7,5b/3b,{16}7,2,
8,1,7,2,5,4,6,3,{32}7b,6,5,4,{8}2,{32}1b/5,2,3,4,{8}6h[8:1],
{16}5b,6,7,6,5b,6,8,6,5b,6,1,6,5b,6,2,6,
3b,4,3,2,3b,4,3,1,3b,8,2b,7,1b,6,8b,5,
7,4,7,4,7,4,7,4,{24}5/8,1,2,3,4,5,{32}7,8,1,2,3,4,{16}1h[32:29]/5<2[16:5],
{4},,,{32}2,3,4,5,6/2,7/3,8/4,1/5,
{1}6>8[2:7]/2<4[2:7],
,,,{8}1h[4:1]/5h[4:7],
,,1h[4:1],,,{4}2h[4:1],
{8},3h[4:1],,,{4}4,4h[4:9],
{8}5h[4:1],,,5h[4:1],,,{4}6h[4:1],
{8},7h[4:1],,,{4}8,8h[4:1],
{48},7/3,6/2,5/1,
E
