&title=going home
&artist=肯尼 寄
&first=0
&des=奎恩 烧
&lv_5=13+?
&inote_5=(160.2){8},,,,E6,,,,,,,,E6,,,,,,,,E6,,,,,,B6,,E6,,,,,,,,E4,,,,,,,,E4,,,,,,,,E4,,,,
{12}8,,,6,,5,C,4,,2,,2h[1:5],
{8},,,,B7,,,,,,,,E8,,,,,,,,B8,,,,,,,,E7,,,,,,,,E1,,,,,,,,B1,,,,,,,,E2,,,,,,,,B7/B8/B1/B2,,,,
{8}E5,,,,6p1[53.4#4:1],,8,,,,,,,,,,,,,,6p1[53.4#4:1],,8,,,,,,,,,,,,,,1q4<4[45.771428571428#2:1]/8,,2,,,,,,,,,,,,,,,,,,,,,,B6/B5/B4/B3,,A4,,E5,,,,5s1[53.4#4:1],,3,,,,,,,,,,,,,,5z1[53.4#4:1],,3,,,,,,,,,,,,,,2s6z2[40.05#8:3]/5,,1,,,,,,,,,,,,,,,,,,,,,,3/7-3[80.1#8:1],,4/8-4<2[80.1#4:1],,37,,8,,,,6<3[80.1#4:1],,,,6,,3-8-5<5[1:1],,5h[2:1],,,,,,7,,1,,E8,,E8,,E8/B7/B8,4,3<3-8[80.1#8:9],2,2-6-3[80.1#4:1],,,,2,,,,,,4,,7,,2h[4:5],,,,,,,,,,
{8},,2-6<3[80.1#8:3]/6,,3<2[80.1#8:3]/7,,26,,3-6<3[80.1#8:3],,,,,,,,,,4,,5<4[80.1#2:1],,6,,7,,,,4,5,6,7,8,,,,B8,,,2,2/8-4[80.1#8:1],,2-6>2-6[80.1#4:3]/8,,8,,2,,,,8-4[80.1#8:5],,8,,8h[4:5],,,,,,,,,,
,,7-3>6[80.1#8:3]/3,,6>7[80.1#8:3]/2,,73,,6-3>6[80.1#8:3],,,,,,,,,,5,,4>5[80.1#2:1],,3,,2,,,,5,4,3,2,1,,,,B1,,,4,2/5>1q5[80.1#2:1],,14,,8,,7,,,,6,,7,,
{16},6,,,
{8},,,,,,1,,17,,7,,7/2h[1:3],,7,6,5,
{16},5b,
{8},,C,,,,,,,,C,,,,,,,,C,,,,,,,,C,,,,,,,,C/B1,,,,,,,,C/B3,,,,,,,,C/B5,,,,
{8},,7h[16:11],,C/B7/B6,,,
{16},5p2[80.1#32:33],
{8}6,5,,
{16},2,
{8},,,,,,,,,1,1,2,2<5-3[80.1#1:1],,,1,,,,,,,,,,5,4,2,3q7<2[80.1#1:1],4,3,,8,7,7h[16:3],,7h[8:1],,,,C,,
{16},1,8,7,,,7,,,,7,,6,,5,,6-1[80.1#16:1],,,,,,,,6,,,,5,,,,,2,3,4,3h[4:7],,,,,,,,,,,,,,,,,,,,,,,,,,,,6,5,4,5,6h[8:3],,,,,,,,,,,,,,,,A5,,,,A5,,,,A5/E6/E5,,3,,1,,4,,7h[4:1],,,,5,,7h[4:1],,,,3,,8h[4:1],,,,5h[1:1],,,,,,,,,,3,,1,,2,,1h[8:5],,,,,,,,,,4,,3,,2h[8:3],,,,,,6,,,,5,,2,,5,,4,,5,,4bh[1:1],,,,,,,,,,,,,,,,,,,,,,,,4,3,2,3,4,3,1,,,,,,8,2,7,1,6,8,5,,,,,,8,7,6,5,4,3,2,,,4,3,2,1h[4:1],,,,5,,1h[16:3],,,5,1h[8:1],,5,8h[8:3],,,,,,7h[8:7],,,,,,,,,,,,,,2,4,2h[16:3],,,3,,4,,,,,,,,,,A5,,,,A5,,,,A5/E6/E5/B5,,4,,3,,1,,2,,6,,2,,,,2,,3,,4,,5,,,,8,,,,,,,,5,,6,,8,,7,,3,,7,,,,6,,1,,,,6,,5,,,,,,,,,,6,5,7,,,,7h[16:5],,,,,6,8,5,7h[8:3],,,,,,4,4,4h[8:3],,,,,,1,2,3,2,3,4,3,4,5,6,7,8h[16:5],,,,,7h[8:1],,6h[4:1],,,,5,,7,,A4,D4,A3,,C,,,,C/B1/B2/B3/B4/B5/B6/B7/B8,,,,,,,2,
{8},28,,,7>2-5[80.1#2:1],,28,,,,,,,7,8-6q2>5[80.1#8:7],1,2v5[80.1#16:1],,,,2,,1,,,,,,,7,8,1,2V46V82[80.1#4:3],,,,2>2-6b[80.1#8:7],,1,,,,,,,,,
{16},D8,
{8}A8,A1,,,,,
,,
{8}1b/6b,,3b/7b-3[80.1#8:1],2b,1b-5<3[80.1#8:3]/5b,,3/7b,,1b-4<3[80.1#8:3],,,,1x-5<3b[53.4#4:1],,,,,,1,,4,,5<3[80.1#8:3],,6,,,,3,4,5,6,7,,,,C/B5/B4/B6/B3/E6/E4,,,7,5-8[80.1#8:1],,5-2>4[80.1#4:1],,5,,5,,,,7>8-4>3-8[80.1#2:1],,8,,7h[2:1],,,,,,,,,,,,4/8-4>7[80.1#8:3],,2/6-3>7[80.1#8:3],,48,,6>6[80.1#2:1],,,,,,,,,,4,,3>5[80.1#2:1],,2,,13,,,,4,3,2,1,8,,,,C/B8/B1/B7/B2/E8/E2,,,1,2-7[80.1#8:1],,2-5>3[80.1#4:1],,2,,2,,,,4<5-7-1-3>2b[80.1#8:3],,3,,4h[2:1],,,,,,,,
{16}5,6,7,8,
{8}1/5<5[80.1#8:3],,,4,5<5[80.1#8:3],,,4,5<5b[80.1#2:1],,,,5,,,,,,,,7>5[80.1#2:1],8,1,,,,,,6,7,8,1,2,,,,E7/B7/B6/B2/B3/E3,,,1,8-4>7[80.1#2:1],,8<8[80.1#2:1],,8,,8,,,,,,,,,
{16}7,6,
{8}5h[4:3]/1h[4:3],,,,,,,,,,3/8-3>6[80.1#8:3],,1/6-2<6[80.1#8:3],,38,,6>6[80.1#2:1],,,,,,,,,,,,3,24,1h[8:5]/3h[8:5],,,,,,,
{16},2x/4x,3x/5x,4x/6x,5x/7x,,
{8},8b,,,C/B8/B1/B5/B4,,1,,2-6-8-4-2[80.1#2:1]/8,,37,,28,,1,,,,5,,6-8-4-2[80.1#4:1],,,6h[8:3],,,,,,,
{32}1x,2x,3x,4x,5x,6x,7x,8x,
{8}1hx[1:4],,,,,B1f/Ch[8:27],B1f,,,,,,,,,,,,,,,,,,,,,,,,,,,,,,,,,,,,,,,,,,
