&title=コットンキャンディえいえいおー!
&artist=黒澤ルビィ
&first=0.47
&des=remdayo
&lv_5=13+
&des_5=remdayo
&inote_5=
(168){4},{1},{4},,,{6}4h[8:1]/6h[8:1],
3h[8:1]/5h[8:1],7x-3[12:1],2x-6[12:1],,,7h[8:1]/3h[8:1],
6h[8:1]/2h[8:1],8xv5[12:1],4xv1[12:1],{12},,,,{4}7h[4:1]/4pp4[4:1],
4qq4[4:1],{8},6x,7x,8x,
{16}1,2,1,2,1p5[8:1],2,{8}1,{4}1/2,7b/2b,
{6}4h[8:1]/5h[8:1],2h[8:1]/7h[8:1],6xv7[12:1],3xv2[12:1],,,8h[8:1]/4h[8:1],
5h[8:1]/1h[8:1],8xqq7[8:1],4xqq3[8:1],{24},,,,,,,,{8}5xpp5[4:1]*qq5[4:1],
,,,,8x/2x,3x/7x,4x/6x,
{16}5x,6x,7x,8x/1x,2x,3x,{8}4x/5x,{16}5,4,6,3,{4}7b/2b,
{8}E6fh[4:23],,,B4,,B3,{24},,,,,,{12}B8,
B1,B2,B3,,A4,,,,,,8,
1,2,{6}3h[3:1],{12},,,,,3b,3b,,{4}E2f/A1/A2/D2/B1/B2,
{12},,,,,,B1,B2,,E3h[4:1],
,,,,,,,,,,Cf,
{24},A8f,,D1f,,A1f,,D2f,,A2f,,D3f,,,{12}E4fh[6:1],,,,,,,,{4}1h[6:1]/7h[6:1],
{12}2h[12:1],6h[12:1],{3}3h[3:1],
{12},,,,,7x,5x,6x,4x,5x,{6}3h[6:1],
{2}5b,{6}1<4[12:5],3q2[4:1],{4},,{16},,{64},,{96},{32}E8,
B7,B6,E6,{8}5xh[8:3],{32},,,,E2,B2,B3,E4,
{16}4xw8b[4:3],,,,,,,Cf/B5/B6/B3/B2/B4/E3/E6,{1},{4},,7bx-3[8:1],
7/8,2x-6[4:1],2/6x<4[4:1],
4x-1[8:1],{8}5,6,,7x/2x,,A7/A8/B8/B7/D8/E8fh[8:7],
,4,2,3,{4}1-4[12:1],1,
{8}2-5[8:1],1v6[8:1],2,1,,Cf/B7/B6/B2/B3,,3/6h[2:1],
,3,2,3h[4:1],6,7<4[6:1],,7/2h[4:1],
,6,8/1-5[8:1],2,1/8-4[8:1],7,{4}8/1>5[4:1],
5<1[4:1],1V35[4:1],{2}5-1[8:1],
{8}8b/1b,7b,1b/8b,2b,5b/4b,3b/6b,{4}8b/1bpp6[8:3],
5h[8:1],{8}7<5q1[8:3],8,{4}4h[8:1],{8}3-5[8:1],2,
{4}3,{8}5/4,6-8[8:1]/3-1[8:1],,3/6,,4h[4:1]/5h[4:1],
,,1/5,7,4/8h[8:1],2,{4}5/1h[8:1],
{24}4xh[24:1],5xh[24:1],4xh[24:1],5xh[24:1],4xh[24:1],5xh[24:1],4xh[24:1],5xh[24:1],4xh[24:1],5xh[24:1],4xh[24:1],5xh[24:1],,,,{8}3/6<2[4:1],,6b,
,4-1[8:1],3,4,5,6/3<6[8:1],,3/7pp2<7[8:5],
,6x,6x,5,5,4,4,3,
{4}3h[8:7],{8}E5,E6,E7,E8,{4}E1,
{8}5/4,5/4,7b,7b,5/4,4/5,2b,2<2[8:11],
{4}8,8,7,7,
{8}6,6,,5-8[8:1],,5/4,{4}1,
6h[8:1]/8h[8:1],3h[8:1]/1h[8:1],3h[8:1]/5h[8:1],4h[8:1]/6h[8:1],
{8}4/5,7v5[8:1]/2v4[8:1],,2b/7b,,6/3,{4}B6f/B3f/B5/B4,
{8}4/5,6,,6h[4:1],,8,{4}8h[4:1],
{8}1,1-4[8:1],,3h[4:1],,2,{4}4b/1b,
{16}E8,B7,B6,E6,E2,B2,B3,E4,E8,E7,E6,E5,E2,E3,E4,E5,
E7,B6,B5,E5,E3,B3,B4,E5,E6,B6,B7,E8,E4,B3,B2,E2,
E8,B8,B1,E2,E6,B5,B4,E4,E8,B8,B1,E2,E6,B5,B4,E4,
{4}3x>6[4:1],6w2[4:1],,,2/1<4[16:3],
3/1-4[8:1],1/3-6[8:1],3/8-4[8:1],
8/3q7[8:1],7<4[12:1]/3>8[8:1],{8}3b/7b,,,5h[4:1],
,E3f,6h[8:1],E3f/B2/B3,{4}6p2[8:1]*q2[8:1],A6f,
{8}4,3,{4}7>2[8:1]/2v4[8:1],{8}2b/7b,,,4/5h[4:1],
,2v5[8:1],8v5[8:1],2,8,2-4v5-7-5v4-2b[8:7],,8h[4:1],
,,8,8,1,1,,3h[4:1],
,4,{4}2bx/5bx,{8}6h[8:1],5-1[4:1],7bx/4bx,1<7-3[4:1],
,3<6[16:3],{4}3,{2}7b,
{4}2/1<5[8:1],1/8p4[8:1],8/7p3[8:1],7/1-4[8:1]*-3[8:1],
1-7[8:1]*-6[8:1],1w5[8:1],{8}1,,,6h[4:1]/3h[4:1],
,,{4}1v4[12:1]/8-5[12:1],1/8,{8}7,7h[8:9],
{24},,,,,,1bx,A1,{6}B1f,{24}2bx,A2,{12}B2f,{24},,3bx,A3,{6}B3f,
{24}4bx,A4,{12}B4f,,{4}8<3[4:1],1,1>6[4:1],
8,8p3[6:1],1,1q6[6:1],
8h[4:1],{8}7,7h[4:1],,6,6,5,
{4}5h[4:1],4w8b[4:1],{12},,,,,,{6}4h[8:1]/6h[8:1],
3h[8:1]/5h[8:1],7<4[4:1],{12}3x,2x,1x,2x,3x,4x,
{6}7h[8:1]/3h[8:1],6h[8:1]/2h[8:1],{24},{8}4x>1[4:1],{12}6x,7x,8x,7x,6x,5x,
{8}4xpp4[4:1]*qq4[4:1],,,,,8x/1x,7x/2x,6x/3x,
{16}1,2,1,2,1p5[8:1],2,{8}1,{4}1/2,7b/2b,
{6}4h[8:1]/5h[8:1],2h[8:1]/7h[8:1],{24},{8}2x/7x,{12}3x,3x,3x,6x,6x,6x,
{6}8h[8:1]/4h[8:1],5h[8:1]/1h[8:1],{24},{8}5x/1x,{12}7x,6x,5x,2x,3x,4x,
{8}5xpp5[4:1]*qq5[4:1],,,,,8x/2x,3x/7x,4x/6x,
{16}8x,1x,7x,2x,6x,3x,{8}5x,{16}4,5,3,6,{4}7b/2b,
2/7b-4[8:1],7/2-5[8:1],2/6<2[6:1],3/6,
6/3>7[6:1],3/6,3/6-1[8:1],3/6,
2/7b-4[8:1],7/2-5[8:1],2/6<2[6:1],3/6,
6/3>7[6:1],3/6,3/6-1[8:1],3/6,
2/7b-4[8:1],7/2-5[8:1],2/6<2[6:1],6/3,
6/3>7[6:1],3/6,{8}4h[8:1],5h[8:1],3h[8:1],6h[8:5],
,,,,{2}3h[2:1],
5h[4:1],Cf/D1/D8/A8/D7/A7/E8/E1/B8/A1/B1/A2/D3/E3/B2/B3/B7/E7/B6/E2/D2,
{4}5h[8:1]/4h[8:1],6h[8:1]/3h[8:1],2h[8:1]/7h[8:1],1h[8:1]/8h[8:1],
7h[8:1]/3h[8:1],6h[8:1]/2h[8:1],8h[8:1]/4h[8:1],1h[8:1]/5h[8:1],
{8}7/2,2/7,3/6,3/6,4/5,2/6,4/5,3/7,
6,7/5,3,4/2,8/7,1/2,3/4,5/6,
{1}2bxq6[1:1],
E
