&title=いますぐ輪廻
&artist=なきそ
&des=ゆき
&first=0
&des_5=ゆき
&lv_5=13
&clock_count=4
&inote_5=(145){1},
{2},{4},C,
{16}2x-5b[8:1],4,3,,1<6[8:1]/2,,,,1/4-1[8:1],,,,4/6,,,,
{16}5,1,4,2,2-6[8:1],,4,,2,,7,,8<5[8:1]/1,,,,
{16}1>4[8:1]/8,,2,,1/8-4[8:1],,7,,2>5[8:1]/8,,3,,2/7-4[8:1],,6,,
{16}1-5[8:1]/7,,2,,1/8-4[8:1],,,,8/1<6[8:1]*>4[8:1],,,,1b,,,,
{16}7x-4b[8:1],5,6,,8>3[8:1]/7,,,,8/5-8[8:1],,,,5/3,,,,
{16}3,1,2,8,1h[8:1],,7,,7<5[8:1],,4,,7,,3,2,
{16}1h[2:1],,,,,,E5,E6,{4}E7,Ch[384:1],
{16}4bh[1:0]/7bh[1:0],,6,5,6,,7,,4,5,4,,5,,3,,
{16}5h[1:0]/2h[1:0],,3,4,3,,2,,5,4,5,,4,,6,,
{16}4h[1:0]/7h[1:0],,6,5,6,,7,,4,5,4,,5,,3,,
{16}5h[1:0]/2h[1:0],,3,4,3,,2,,5,4,3/5,,2/6,,,,
{16}1bh[1:0]/6bh[1:0],,7,8,7,,6,,1,8,1,,8,,2,,
{16}8h[1:0]/3h[1:0],,2,1,2,,3,,8,1,8,,1,,7,,
{16}1h[1:0]/6h[1:0],,7,8,7,,6,,1,8,1,,8,,2,,
{16}8h[1:0]/3h[1:0],,2,1,2,,3,,8,1,2/8,,3/7,,6,4,
{4}5h[4:7],4-6[8:1],4,7-3[8:1],7,2-8[8:1],2,1h[1:0],
{8}1h[4:6],6,7,8,2,3,4,5,E6,E8,E2,E4,Ch[4:1],,,,
{16}2,,3,4,3,,4,,3h[4:1],,5x,,5x,,,,
{16}6,,5,,7,5,6,4,,5,,,4,4h[8:1],,B5,
{4},{16}3,3h[8:1],,B4,{8},{16}2h[8:1],,3h[8:1],,4,,
{16}6x,5,6,5,7,5,7,5,8,5,8,5,7>2v4[4:4],,7,,
{1}3h[2:3],{2},{4},{8}7>2v4[2:1],7,
{1}3h[2:3],{2},{4},{8}7>2v4b[4:1],7,
{4}3h[2:1],,,{8}2/4h[1:0],3,
{16}4h[1:0]/6,,6,5h[1:0],5,7h[1:0],,
{16}4h[1:0]/6,,3,5h[1:0],3h[1:0],4,3h[1:0],4,2h[1:0],
{2}4bh[2:1],{8}E3h[4:1],,,8<5[4:1],,
{8}4h[1:0],3h[1:0],2h[1:0],1w5[8:1],,A1,,
{16}2x-5b[8:1],4,3,,1<6[8:1]/2,,,,1/4-1[8:1],,,,4/6,,,,
{16}5,1,4,2,2-6[8:1],,4,,2,,7,,8<5[8:1]/1,,,,
{16}1>4[8:1]/8,,2,,1/8-4[8:1],,7,,2>5[8:1]/8,,3,,2/7-4[8:1],,6,,
{16}1-5[8:1]/7,,2,,1/8-4[8:1],,,,8/1<6[8:1]*>4[8:1],,,,1b,,,,
{16}7x-4b[8:1],5,6,,8>3[8:1]/7,,,,8/5-8[8:1],,,,5/3,,,,
{16}3,1,2,8,1h[8:1],,7,,7<5[8:1],,4,,7,,3,2,
{16}1h[2:1],,,,,,E5,E6,{4}E7,Ch[384:1],
{4}4bh[1:0]/7bh[1:0],{32}E4,E3,E2,E1,E8,E7,E6,E5,
{8}E4/8x-4[8:1],,2>5[8:1]/8,,
{16}2/6-8[8:1],,,,4-2[8:1]/6,,,,1-5[8:1]/4,,,,1/7-3[8:1],,,,
{8}3/7,,1x,,2h[4:5],3,4,5,6,7,8,1,B8,B7,B6,B5,
{2}3v5[8:1]*-1[8:1],
(72.5)
{2}Ch[4:1],
(145)
{16}3bxh[1:0],,6,4,5,,3,,2,4,3,,7,5,6,,
{16}3h[1:0],,3,4,2,,1,,2/8,,1/7,,6,,4/5,,
{16}3h[1:0],,5,4,6,,5,,7<6-4[8:1],8,7,8,7,,1,,
{16}2h[1:0],,3,4,3,,5,,4,5,4,,6,,5/7,,
{16}6bxh[1:0],,3,5,4,,6,,7,5,6,,2,4,3,,
{16}6h[1:0],,6,5,7,,8,,7/1,,8/2,,3,,5/4,,
{16}6h[1:0],,4,5,3,,4,,2-4<5[8:1],1,2,1,2,,8,,
{16}7h[1:0],,6,5,6,,4,,5,4,5,,3,,4/2,,
{2}2bh[4:15],D1/E1,D2/E2,D3/E3,D4/E4,D5/E5,D6/E6,D7/E7,
{8}8<2-4-6-8[4:6],,2,,2,,2,,1,,1,,1,,1,,
{8}1h[8:3],,,8,{4}2b/7b,1w5b[8:1],
{16}A1f,,,,3h[8:1],,4,,2>5[8:1],1,2,,2/8-4[8:1],,7,,
{16}1-5[8:1]/8,,2,,1/7-3[8:1],,6,,7/8w4[8:1],,,,8b,,,,
{16}3,4,3h[16:1],,6,5,6h[16:1],,3,4,2h[16:1],,6,5,7h[16:1],,
{16}2-6[8:1],1,3,8,2,,7h[8:1],,,,8,,{4}8w4b[8:1],
{16}A8f,,,,6h[8:1],,5,,7<4[8:1],8,7,,7/1-5[8:1],,2,2,
{16}8-4[8:1]/1,,7,7,8/2>5[8:1],,3,,2/1w5[8:1],,,,1b,,,,
{1}E3h[8:4]/E4h[8:5]/E6h[8:6]/E7h[8:7]/Cf,
{16}2x-5[8:1],,3,4,2h[1:0],,6,,2-8[8:1],,4h[1:0],5,2,,7,,
{4}6-4>2[4:1],2<8-6[4:1],6x>4-2[4:1],C,
{8}1h[4:1],,B4/E4,C,8h[4:1],,E6/B5,C,
{8}2h[4:1],,3h[1:0],4h[1:0],5-1[8:1],,5/7,,
{16}7bx<6-4[8:1],,8h[1:0],1,7h[1:0],,3,,
{16}2-8[8:1],,3h[1:0],4,2,,A5h[384:1]/E6,,
{8}1h[8:1],B6h[384:1]/E7,2h[8:1],B8h[384:1]/C,3bh[4:1],,,{16}E8,E7,
{16}E6,,,,,,E2,E3,E4,,,,C,
E
