&title=スピカ
&artist=ロクデナシ
&first=-0.05
&des=Rin@ユイリ
&cabinet=DX
&clock_count=4
&lv_5=13
&des_5=RinA
&inote_5=
(138){4},,,,{2}4h[4:1]/6-3[2:3],
5h[4:1],
4h[4:1],5h[4:1],
4h[4:1]/2-7[1:1],5h[4:1],
4h[4:1],{8}5-1[8:1],4/6,{4}5,
{16}6bh[16:3],{8},{16}5h[16:3],{8},4h[8:1],5,6/4,{4}7/5,
{16}6,4,5,3,{8}4,2,1/3,8/2,{4}7/3,
{16}3bh[16:3],{8},{16}4h[16:3],{8},5h[8:1],4,3/5,{4}2/4,
{16}3,5,4,6,{8}5,7h[8:3],1,B2/E2,{4}B2/E2,
{16}6bh[16:3],{8},{16}5h[16:3],{8},4h[8:1],5,6/4,{4}7/5,
{16}6,4,5,3,{8}4,2,1/3,8/2,{4}7/3,
{16}3bh[16:3],{8},{16}4h[16:3],{8},5h[8:1],4,3/5,2/4,{16}3,4,
{8}3,2/5,{4}7/8-4[8:1],{8}8/1,B2/E2,{4}B2/E2,
{2}8bx-4[4:15],7-5[8:1],
1-3[8:1],7-5[8:1],
1-3[8:1],7-5[8:1],
1-3[8:1],7-5[8:1],
2-6[4:11],3-5[8:1],
1-7[8:1],3-5[8:1],
1-7[8:1],3-5[8:1],
{8}5,4,3,2,5,4,3,{16}2,1,
{4}2bh[8:1],1h[8:1],3h[8:1],4h[8:1],
{8},5bh[8:1]/3h[8:1],,6bh[8:1]/4h[8:1],,7bh[8:1]/3h[8:1],,8/2,
,1,8/2,7/3,6-1[8:1],2-5[8:1],6,2,
,8qq5[2:1],1,8,1,2,3,4,
,5,3/4,2,8/1,2,3/4,4/3,
{16}5x,6x,7x,8x,{4}1x/2h[8:1],3h[8:1]/4h[8:1],5h[8:1],
7bh[8:1]/6bh[8:1],8h[8:1],1bh[8:1]/2bh[8:1],3h[8:1]/4h[8:1],
{8}6/5,6,8/7bh[8:3],1,8,1bh[8:3],8,7,
{4}8b-4[8:1],1-5[8:1],1,6-8[8:1],
6/5-1[8:1],5/6-8[8:1],6/5,1-5[8:1],
8-4[8:1],8,3,5-1[8:1]/4-2[8:1],
4-8[8:1]/5-7[8:1],4-2[8:1]/5-1[8:1],,8bh[8:1],
3b<6[8:1],3/7b>2[8:1],7/4-8[8:1],{8}4/6,7v2[8:1],
2V84[4:1],7,4,3,{4}2,{8}8-4[8:1],1,
{4}8/2-6[8:1],2/7-3[8:1],7,2V41[4:1],
{8}1-5-8[4:1],7,{4}8-6[8:1],{8},E8/B8,E8/B8,7-3[8:1],
3-8[8:1],8-2[8:1],{2},{8}2,1>4[8:1],
1<6[8:1],1-5[8:1],1x,1x,{4}6x,6-8[8:1]/5-1[8:1],
6/5,5-1[8:1]/4-2[8:1],5/4,{8}8/2,1/7,
8/6h[4:3],1,2,3,{4}4,5-1b[8:1],
{16}7/5,{8},{16}6,{8},5bh[8:1],4,3/5,{4}2/4,
{16}3,5,4,6,{8}5,7,8/6,1/7,{4}2/6,
{16}6bh[16:3],{8},{16}5h[16:3],{8},4h[8:1],5,6/4,{4}7/5,
{16}6,4,5,3,{8}4,2h[8:3],8,B7/E8,{4}B7/E8,
{16}3bh[16:3],{8},{16}4h[16:3],{8},5h[8:1],4,3/5,{4}2/4,
{16}3,5,4,6,{8}5,7,8/6,1/7,{4}2/6,
{16}4h[8:3],{8},{16}5,{8},6,7/3,8/4,{4}1/5,
{16}1x/5x,8x/4x,7x/3x,2x/6x,{4}1bxh[8:1]/5bxh[8:1],{8}6v1[8:1]/2v5[8:1],A3/A7,{4}A2/A6,
8x-6[8:1],2-4[8:1],{2}1-5[8:1],
{4}1-3[8:1],7-5[8:1],{2}8-4[8:1],
{4}8-6[8:1],2-4[8:1],{2}1-5[8:1],
{4}1-3[8:1],7-5[8:1],{2}8-4[8:1],
{4}6-4[8:1],1/6-8[8:1],2/6-4[8:1],3/6-8[8:1],
2/6-4[8:1],1/6-8[8:1],6/2,1-3[8:1],
7-5[8:1],8-4[8:1],7-5[8:1],1-3[8:1],
8-4[8:1],4-8[8:1],{2},{16}3,
{8},{16}3,4,{8},{16}4,{4}5,{8}6q2[4:1],4,
{4}2q6[4:1],6-8[8:1]*-4[8:1],{2},{16}2,
{8},{16}2,1,{8},{16}1,{4}8,8/7h[4:3],
{8}E6,E5,E4,E3,E2,8b,{4}8b,
7bxh[16:3]/1xh[16:3],7xh[16:3]/1bxh[16:3],8bxh[16:3]/2xh[16:3],2bxh[8:1]/8x-4[8:1],
1-5[8:1],6-2[8:1],4-8[8:1],7>3[8:1],
7,{16}4,{8},{16}5,{8}5,3,3/4,5/4,
{4}6/5,{8}5/6bh[8:3],4,3,4bh[8:3],5,6,
{4}5-1[8:1],4-8[8:1],4,7-5[8:1],
7/8-4[8:1],8/7-5[8:1],7/8,4b-8[8:1],
5-1[8:1],5,2,8-4[8:1]/1-3[8:1],
1-5[8:1]/8-6[8:1],1-3[8:1]/8-4[8:1],{2},{8}6,
5,{4}3/4,{8}3,4,{4}5/6,
{8}6,5,4,3,{4}2h[8:1],{8}3,4,
5/6,7,6,5,{4}3/4pp4[4:1]*qq4[4:1],4,
,{8}4,5/3,{4}2/6,{8}5/6<2[2:1],7/4,
6/3,4,5,4,{4}3,{8}4/3>7[2:1],2/5,
3/6,5,4,5,{4}6,7x-1[8:1]/6x-2[8:1],
7x/6x,6x-2[8:1]/5x-3[8:1],6x/5x,{8}1/3,2/8,
1/7bh[4:3],2,3,4,{4}5,3bh[8:1],
6b>3[8:1],6/2b<7[8:1],2/5-1[8:1],{8}5/3,2v7[8:1],
7V15[4:1],2,5,6,{4}7,{8}1-5[8:1],8,
{4}1/7-3[8:1],7/2-6[8:1],2,7V58[4:1],
{8}8-4-1[4:1],2,{4}1-3[8:1],{8},E2/B2/B1,E2/B2/B1,4,
4qq8[4:1]*pp8[4:1],3/5,{4}4,,{8}8-3[8:1]/3-8[8:1],2/1,
{4}3V15[16:3]/8V25[16:3],{2},{4}7-5[8:1]/8-4[8:1],
7/8,8-4[8:1]/1-3[8:1],8/1,{8}5/3,4/6,
5/7bh[4:3],4,3,2,{4}1,8,
{16}4b,{8},{16}2/6,{8},8,1/7,2/6,{4}3/5<1[4:1],
{16}2,3,4,5,{8}6s2[4:1],8,2,8,{4}6,
{16}5,{8},{16}7/3,{8},1,8/2,7/3,{4}6/4>8[4:1],
{16}7,6,5,4,{8}3V17[4:1],5,3,E4/B4/E5,{4}E7/B6/E6,
{16}4,{8},{16}2/6,{8},8,1/7,2/6,{4}3/5<1[4:1],
{16}2,3,4,5,{8}6s2[4:1],8,2,8,{4}6,
{16}5,{8},{16}7/3,{8},1bh[8:1],,7/3,{4}1/5,
{16}6x/2x,7x/3x,8x/4x,7x/3x,{8}6x/2x,1pp1[4:1]/5pp5[4:1],8/4,A1/A5,{4}E8/E4,
E
