&title=運命の羅針盤に導かれて
&artist=打打だいず
&first=0
&des=Sean
&lv_5=13+
&des_5=Sean
&inote_5=
(60){4},{12}5pp4[4:1],4,3,4,3,2,1qq6[4:1],{36},,,4/5,,2,
{6}1,{12}3,4qq5[4:1],5,6,5,6,7,8q1[4:1],{36},,,5/4,,7,
{4}8,{12}5-3[18:1],4-2[18:1],3-1[18:1],{4}6h[6:1],{12}4-6[18:1],5-7[18:1],6-8[18:1],
{4}3h[6:1],{12}4q5[6:1],3,2,5>6[2:1]*>6[2:1],6,{3}7,
{12},,,,,,,,,{4}4h[4:1]/3q7[8:5],
,5h[4:1],,5h[4:1]/6<3[8:5],
,4h[4:1],{12},,7,(57.53)8<1[1.0429##2.1787],,,,,8,
(52.83)1<4[1.1357##2.3857],,,,,3,(48)4>1[1.25##1.2632],,,(47.5){4}1<6[1.2632##1.2712],
(47.2)6>4[1.2712##1.519],(39.5)Cfh[4:1],(60),
{12},5h[6:1],{18}4,{36}3,2h[6:1],,,{18}3,{36}4,4,,3h[12:1],,,5,4,,4,6,5,7,6h[12:1],,,{18}8,{36}8,E2,E3,E4,
E8,E7,E6,3,,2h[9:1],,,5,4,,4,5,3,4,2h[12:1],,,{18}4,{36}4,3,,3,{18}6,{36}6,4,,4,{18}3-5[18:1],{36}3,2-6[18:1],,2,
{18}1-7[18:1],1,{36},,,,,,,,,,,{12}4/5,1pp4[4:1],8,7,1/8,6pp1[4:1],5,
7,6/4,5,4,3,2h[12:1],{18}4,{36}4,E2,E3,E4,E8,E7,E6,8,,,{12}1qq6[4:1],2,
3,4/1,3pp8[4:1],2,1,3/5,6,7,6,E6/E4,E7/E3,E8/E2,
,8/1,{18}3h[6:1],{36}1,1-3-5[6:1],,,{18}7h[6:1],{36}5,5-1[12:1],,,,,,,,,,,,{12}6,{36}8h[6:1],,6,{12}6-8-3[6:1],
{18}5h[6:1],{36}3,3-6[12:1],,,,,,,,,,,,{12}5h[3:1],{36},,6,,,7,,,8,8h[3:1],,,,,4,,,3,
,,2,2h[6:1],,,E1,B8,B7,E7,,,E3,B3,B4,E5,,,B2,B1,E1,B5,B4,E4,B8,B7,E7,2b<7[1:1],{4},,,{16},,,{64},,{288},{4}4h[6:1],
{12},1-5-7[6:1],7/3,3/7-3[12:1],5,4,4,8-4-2[6:1],2/6,6/2-6[12:1],4,5,
5,4-7-2[6:1],6/2,6/2-5[12:1],7,8,8,8-3-6[6:1],2/6,2/6-1[12:1],3,4,
4,5-8[12:1],7h[12:1],2h[12:1],5-2[12:1],4h[12:1],7h[12:1],5-8[12:1],6h[12:1],1h[12:1],5v2[12:1],4h[12:1],
8h[12:1],5v8[12:1],4h[12:1],3h[12:1],5v2[12:1],6h[12:1],7h[12:1],5,4h[12:1],3h[12:1],2h[12:1],1h[12:1],
8h[12:1],{36}5,4,3,5,4,3,5,4,3,7,6,5,8,7,6,1,8,7,5,4,3,5,4,3,5,4,3,1,2,3,8,1,2,
7,8,1,5,4,3,5,4,3,5,4,3,7,6,5,8,7,6,1,8,7,5,4,3,5,4,3,5,4,3,2,1,8,7,6,5,
4,3,2,4,5,6,4,5,6,4,5,6,2,3,4,1,2,3,8,1,2,4,5,6,4,5,6,4,5,6,8,7,6,1,8,7,
2,1,8,4,5,6,4,5,6,4,5,6,4,3,2,4,3,2,4,3,2,5,6,7,5,6,7,5,6,7,3,2,1,3,2,1,
3,2,1,8p1[2:3],{1},{4},,,{16},,,{64},,{288},{12}7p5[4:1],
,,,,,1p8[4:1],,,,,,E7,
B7,B8,B4,B3,E3,C,{36}E4,E5,E6,E7,E8,E1,E2,E3,E4,E5,E6,E7,
E8,E1,E2,Ch[2:1],,,,,,,,,,,,,,,,,,{12}1pp6[6:1],{36},,,3/4,,8,{6}1,
{12}7,7h[12:1],{36}5,6,4,5,,,{12}2h[12:1],{36}4,3,5,{12}4,4/6h[12:1],{36}8,7,1,8,,,{12}4/3h[12:1],{36}1,2,8,
{12}1,4/3-8-6[6:1],5/2,1/6-2[12:1],6/3,5,4,8<5[12:1],1/7,{36}4/3,,1,{12}8,4,
3,2/1-5-7[6:1],8/3,4/7-3[12:1],1/4,3,2,1>4[12:1],8/2,{36}6/5,,8,{12}1,5,
8/7,4-6[12:1],5/3-7[12:1],6/2-8[12:1],4,3,2,5-3[12:1],4/6-2[12:1],3/7-1[12:1],5,6,
7,4qq1[4:1],3,2,4/8qq5[4:1],7,6,8,1,2,3,4,
5,6/5-2-8[6:1],7/4,3/8-4[12:1],7/5-7[12:1],6,5,5>2[12:1],1,{36}8/7,,6,{12}5,7,
8,2/1-6-4[6:1],8/3,7/4-8[12:1],3/1-3[12:1],2,1,1<6[12:1],5,{36}4/3,,2,{12}1,3,
2,1-3[18:1]*-7[18:1],2-4[18:1]/8-6[18:1],3-5[18:1]/7-5[18:1],,,,8-6[18:1]*-2[18:1],7-5[18:1]/1-3[18:1],6-4[18:1]/2-4[18:1],,,,6-1[12:1],
7/3,8,2-5[12:1]/6p4[6:1],3,{2}4>4>3>2<1<8<7<6>5[3:1],
{12},,,,,,,4h[4:1]/5p7[2:1],,,,,,3h[4:1],
,,,,,5h[4:1]/4qq5[2:1],,,,,,6h[4:1],
,,,,2,(57.53)1>8[1.0429##2.1786],,,,,1,
(52.83)8>5[1.1357##2.3857],,,,,6,(48)5<8[1.25##1.2632],,,(47.5){6}8>3[1.2632##1.2712],
{12},(47.2)3<5[1.2712##1.519],,,(39.5)Cfh[4:1],,,(60),
E
