&title=Euthanasia
&artist=samfree
&first=0.238
&lv_5=13+
&des_5=DarkForest
&inote_5=
(152){4},{8},,,,3,3,
{4}6/4,{8}8,7/1,,,1/3,8,
{2}7h[4:1]/1h[4:1],{4}8h[8:1]/2h[8:1],{8}6/1,2/5,
4/3-1[8:1],4,4,4,5/4-8[8:1],5,5,5,
1/5-7[8:1],1,1-5[8:1],1,{16}8/1,,,7h[4:1],,,{8}2h[16:1],
{4}8/1,{8}5,6,{4}7,{8}8/4,3,
{4}2,5h[2:1],{2}1h[4:1],
{8}6h[4:1],5,4,5,3h[4:1],4,5,4,
5h[8:1],4h[8:1],6h[8:1],3h[8:1],7<4[8:1],1h[8:1],,,{4}8,
{8}7/1,2/6,,2/8,{4}7/3,
1/2h[8:1],3/8h[8:1],7/4h[8:1],5/6h[8:1],
{8}5/6-8[8:1],5,5,5,4/5-1[8:1],4,4,4,
8/4-2[8:1],8,8-4[8:1],8,{16}8/1,,,2h[4:1],,,{8}7h[16:1],
{4}1/8,{8}4,3,{4}2,1/5,
{8}8,7,{4}6/1,{8}5h[8:1],4h[8:1],6h[8:1],3h[8:1],
7h[8:1],2h[8:1],8h[8:1],1h[8:1],7h[8:1],2h[8:1],6h[8:1],3h[8:1],
{16}5,4,6,3,7,2,8,1,7,2,{8}8b,,,{4}4p7[2:1],
6h[4:1],,8p3[2:1],
{2}1h[4:1],{4}2p5[2:1],7h[4:1],
,6p1[2:1],,1p4[2:1],
2h[2:1],,,8/4,
{2}4/8,{4}7/3,6/2,
{2}5h[4:1]/1h[4:1],8h[4:1]/4h[4:1],
{8}5/1h[8:1],5,2/6h[8:1],2,7/3h[8:1],7,4/8h[4:1],4,
,,,,{4}5-8[16:1]/4-1[16:1],5/4,
{16}6,5,6,5,6,5,6,5,7,4,7,4,7,4,7,4,
6,5,6,5,7,8,7,8,4,3,4,3,1,2,1,2,
7,8,7,8,7,8,6,1,6,1,6,1,7,8,6,1,
7,8,7,8,7,8,7,8,4,3,4,3,8,1,8,1,
6,5,6,5,6,5,8,1,8,1,8,1,7,2,6,3,
5,4,5,4,5,4,6,3,6,3,6,3,7,4,7,4,
8,5,8,5,8,5,8,5,1,2,1,2,1,2,1,2,
7,8,7,8,7,8,7,8,6,1,6,1,7,2,7,2,
5,4,5,4,5,4,5,4,5,4,5,4,5,4,5,4,
8,1,8,1,6,5,6,5,8,1,8,1,4,3,4,3,
8,1,8,1,8,1,7,2,7,2,7,2,6,3,6,3,
6,3,6,3,6,3,6,3,5,4,5,4,6,3,5,4,
6,5,6,5,6,5,6,5,6,5,6,5,8,1,4,3,
4,3,4,3,4,3,4,3,5,2,4,3,1,2,1,2,
7,8,7,8,7,8,7,8,7,8,7,8,5,4,1,2,
5,4,5,4,6,3,6,3,5,4,6,3,7,2,8,1,
{4}7b,3qq8[8:5],,,{1}6pp1[8:5],
{8}4,3,2,1,5,6,7,8,
{16}8/1,7/2,{8}6/3,{16}5/4,3/6,{8}2/7,{16}8/1,7/2,{8}6/3,{4}1b,
{16}6,5,6,5,8,1,7,2,7,2,8,1,8,1,4,3,
4,3,4,3,4,3,4,3,4,3,4,3,7,2,7,2,
6,1,6,1,8,2,4,3,4,3,8,1,6,5,6,5,
7,4,7,4,8,1,5,2,5,2,5,2,7,8,7,8,
4,3,4,3,4,3,4,3,5,4,5,4,5,4,5,4,
6,5,6,5,6,5,6,5,6,5,6,5,8,1,7,2,
6,3,6,3,7,4,8,5,8,5,7,3,7,3,7,3,
6,5,4,3,7,6,5,4,8,7,6,5,1,8,7,6,
1b,2,1,2,8,1,7,2,7,2,4,3,4,3,6,5,
7,2,7,2,7,2,7,2,7,2,7,2,6,5,8,1,
4,3,4,3,5,2,6,1,6,1,8,3,8,3,1,2,
1,2,1,2,1,2,1,2,1,2,1,2,7,8,7,8,
6,2,6,2,6,2,5,4,7,3,7,3,6,2,6,2,
5,1,5,1,5,1,5,1,7,2,7,2,5,4,5,4,
7,8,7,8,7,8,7,8,7,8,7,8,7,8,7,8,
1,2,1,2,1,2,1,2,1,2,1,2,1,2,1,2,
{4}1,{8}6h[4:1],5h[8:1],,,5>2[4:1],5,
6,7,{4}8,1h[8:3],2h[8:1],
{8}4<7[4:1],4,3,2,{4}1,{8}5>2[4:1],5,
6,7,{4}8,1h[8:3],2h[8:1],
{8}4<7[4:1],4,3,2,{4}1,{8}5>2[4:1],5,
6,7,{4}8,1h[8:3],2h[8:1],
{8}4<7[4:1],4,3,2,{4}1,{8}5>2[4:1],5,
6,7,{4}8,{8}7-4[8:1]/2-5[8:1],4<8[8:3]/5>1[8:3],,,,,,,{4}5-8[16:1]/4-1[16:1],
5/4,
{16}6,5,6,5,6,5,6,5,7,4,7,4,7,4,7,4,
6,5,6,5,7,8,7,8,4,3,4,3,1,2,1,2,
7,8,7,8,7,8,6,1,6,1,6,1,7,8,6,1,
7,8,7,8,7,8,7,8,4,3,4,3,8,1,8,1,
6,5,6,5,6,5,8,1,8,1,8,1,7,2,6,3,
5,4,5,4,5,4,6,3,6,3,6,3,7,4,7,4,
8,5,8,5,8,5,8,5,1,2,1,2,1,2,1,2,
7,8,7,8,7,8,7,8,6,1,6,1,7,2,7,2,
5,4,5,4,5,4,5,4,5,4,5,4,5,4,5,4,
8,1,8,1,6,5,6,5,8,1,8,1,4,3,4,3,
8,1,8,1,8,1,7,2,7,2,7,2,6,3,6,3,
6,3,6,3,6,3,6,3,5,4,5,4,6,3,5,4,
6,5,6,5,6,5,6,5,6,5,6,5,8,1,4,3,
4,3,4,3,4,3,4,3,5,2,4,3,1,2,1,2,
7,8,7,8,7,8,7,8,7,8,7,8,5,4,1,2,
5,4,5,4,6,3,6,3,5,4,5,4,7,2,7,2,
8b,1,8,1,8,1,8,1,8,1,8,1,7,2,6,3,
5,4,5,4,5,4,5,4,5,4,5,4,6,3,7,2,
8,1,8,1,8,1,8,1,8,1,8,1,7,2,6,3,
5,4,5,4,5,4,5,4,5,4,5,4,6,3,7,2,
8,1,8,1,8,1,8,1,8,1,8,1,7,2,6,3,
5,4,5,4,5,4,5,4,5,4,5,4,6,3,7,2,
8,1,8,1,7,2,6,3,5,4,5,4,6,3,7,2,
8,1,8,1,7,2,6,3,5,4,5,4,6,3,7,2,
{8}8b,1,2,3,7,6,5,4,
1,2,3,4,6,7,8,1,
{32}3,4,{16}5,{8}8,7,6,4,3,2,1,
{32}7,6,{16}5,{8}3,5<8[8:3],8,4,3,2,1,
E
