&title=C & B
&artist=PSYQUI feat.Such
&first=0.69
&lv_5=14
&des_5=G & C
&inote_5=
(170){4}1x/7x-3-5<6-1[2:1],{8},,,,2x,3x-7-1>2-5[2:1],
,,,,,,,4x/6-2<7-4[2:1],
,,,,,,1x,6x/2-6>3-8[2:1],
,,,,,,,,7xqq6[4:1],
,,1xpp2[4:1],,,{4}8x<4[4:1],
{8},2xV46[4:1],,,{2}8x-4[8:1],
{4}3xV15[8:3]/7xV15[8:3],{8},,,,8x/2x,7x/3x-7[8:1],
,3x/6x-2[8:1],,6x/4xw8[8:1],,4x,,,{4}5bx/1xh[2:1],
5,5,{8}8x/7x,1x/6xh[8:7],
,,{4}4,4,{8}4,5/3xh[8:5],
,,{4}5,5,{8}6/4x,3/7xh[8:3],
,2,,1x/3x,,8x/6x,,,{4}4/8xh[4:1],
{8}3,4/2xh[4:1],,5,{4}4/6xh[4:1],
{8}1,8/2xh[4:1],,8,{2}4x/8-4[8:1],
{4}7/3xh[4:3],7,6,{8}6,5/2-6[8:1],
,2/7-3[8:1],,7/1w5[8:1],,1,{16},,,,8b/2b-4[8:1],
,,1,{8}2,8,{16}7-5[8:1],,,8,{8}7,1,
{16}2-5[8:1],,,1,{8}2,8,{16}7-4[8:1],,,8,{8}7,1,
{16}2>5[8:1],,,1,{8}2,8,{16}7<4[8:1],,,8,{8}7,1,
{16}2-6[8:1],,,1,{8}2,8,{16}7-3[8:1],,,8,{8}7,1,
4/2,2,5/7,7,4/2,3,5/7,6,
1/3,2,6/8,7,1/4,3,5/8,6,
7/1,1/7,8/2,8/2,{16}2,8,2,8,1,1,1,1,
{8}2bx/8bx,{16}3,4,{8}3,{16}6,5,{8}6,{16}1,8,{4}2/7,
{8}1b/5b,7bh[4:1]/3bh[4:1],,,2h[8:1],{16}4,3h[8:1],,5,{8}4h[8:1],
{16}6x,6,5x,5,{8}7,8/3,7h[8:1],{16}5,6h[8:1],,4,{8}5h[8:1],
{16}3x,3,4x,4,{8}2,5/1,8h[8:1],{16}6,1h[8:1],,7,{8}2h[8:1],
8-3[8:1],3>8[8:1],8<5[8:1],5,{4}4w8[8:1],4b,
{16}2x,2,1x,1,{8}3,4/8,7h[8:1],{16}5,6h[8:1],,4,{8}5h[8:1],
{16}3x,3,4x,4,{8}2,1/6,2h[8:1],{16}4,3h[8:1],,5,{8}4h[8:1],
{16}6x,6,5x,5,{8}7,4/8,1h[8:1],{16}3,8h[8:1],,2,{8}7h[8:1],
1-6[8:1],6<1[8:1],1>4[8:1],4,{4}5w1[8:1],5b,
{8}6/4,8/2,3/7,{16}1bx,6,5,6,8bx,5,4,5,1bx,4,
3,4,8bx,5,4,5,1bx,6,5,6,8bx,5,4,5,1bx,4,
3,4,8bx,5,4,5,1bx,6,5,6,8bx,5,4,5,{8}1bx,
7-3[8:1],3-1-7-5[4:1],7,5,{4}4w8[8:1],4b,
{8}3/5,1/7,6/2,{16}8bx,3,4,3,1bx,4,5,4,8bx,5,
6,5,1bx,4,5,4,8bx,3,4,3,1bx,4,5,4,{8}8bx,
{16}7,7h[8:1],,5,6,5,{8}6,{16}2,2h[8:1],,4,3,4,{8}3,
{16}8,7,1,2,7,6,2,3,6,5,3,4,{4}Cf,
6b/2bpp3p7[8:3],6x,6x,{8}5b/1b,2b/6bpp7p3[8:3],
,,,,2,1,2/8,7b/3bqq1>2-5[8:3],
,,{4}6x,{8}7,7,8b/4b,3b/7bqq5<6-1b[8:3],
,,,,3,4/8,3/7,6x/2x,
1b>4[8:1],8,7,6b<1b[8:1],5,4,3b<6[8:1],2,
1,8b>3b[8:1],7,6,5b,4/6,3/7,2/8,
{4}Cf/1b<1b[8:3]*V75V31[8:3],{8},,,,7,8b-5[8:1]*-6[8:1],
,8b-3[8:1]*-2[8:1],,8bw4b[8:1],,8b,,,{1}B4/B8/B5/B1/E5/E1f/Ch[2:7],
{4},,,,,,,,,,,,1,
2,{8}3,3h[4:1],,8,
,2,,7,,3,,6h[4:1],
,2,2,5,5,3,3,6,
,5,,4,4,5,{4}6/4,
8/E2,8/E3,8/E4,{8}7/E5,7,
E2,6,E3,6,E4,7,E5,7,
E2,8,E3,7,{4}7/E4,{8}8/E5,8,
E2,6,E3,7,E4,8,{4}8/E5,
1/E8,1/E7,1/E6,{8}2/E5,2,
E8,3,E7,3h[2:1],{4}E6,E5,
2h[2:1]/E8,E7,{8}E6,3,2/E5,1,
E8,1,E7,2,E6,3,{4}3/E5,
{8}6b/1b,{16}7,8,{8}7,{16}6,5,{8}6,{16}7,8,{8}7,{16}6,5,
{8}6,{16}7,8,{8}7,{16}6,5,{8}6,{16}7,8,{8}7,{16}2,1,
{8}2,{16}3,4,{8}3,{16}2,1,{8}2,{16}3,4,{8}3,{16}2,1,
{8}2,{16}3,4,{8}3,{16}2,1,{8}2,3/4,2/1,8/7,
5/4,3,4/5,6,5/4,2,5/4,7,
4/3,2,5/6,7,4/2,1,5/7,8,
{16}3,3,5,5,1,1,7,7,{32}2,3,4,5,6,7,8,1,2,3,4,5,6,7,8,1,
{8}2/6,{16}3,4,{8}3,{16}6,5,{4}6h[4:1],{16}5,4,3,2,
{4}7/1bv4[0.3529##0.1765]*-3[0.3529##0.1765],{8}1v6[0.3529##0.1765]*-7[0.3529##0.1765],,{4}1>6[4:1],{8}1,7,
8-3[8:1],3V16[4:1],8,4,,2-5[8:1]*-6[8:1],,2,
,7-3[8:1],1,7,8-4[8:1],2-8-6>3[8:3],8,2,
,1w5[8:1],,1,,7/3,7/3,{16}4,6,
{4}1b<6[8:1],5-8[8:1]*-2[8:1],5,{8}1/7,6/2-6[8:1],
5/3,2/6,,1/3,7v4[8:1],4V68[16:3],7,3,
,2-6[8:1],1,2,7-3[8:1],8,7,1,
,2b-5[8:1]/6b-1[8:1],,6b/2b,{16},,4x,3,2,5,6,7,
{4}8-5[8:1]/1-4[8:1],8b/1b/B2/B3/E3/B7/B6/E7/Cf,2/8<3[4:1],{8}8/3,2,
1-6[8:1],6<8-3[4:1],1,5,,7-4[8:1]*-3[8:1],,7,
,2-6[8:1],8,2,1-5[8:1],7-1-3<6[16:5],1,7,
,8w4[8:1],,8,,2/6,2/6,{16}5,3,
{4}8<5[8:1]*v5[8:1],8>3[8:1]*v3[8:1],8,{8}7-3[8:1],8-2[8:1],
7-5[8:1],8-4[8:1],7,8<3[4:1],,2,{4}2b,
{16}1b,3,,3,{8}4,2/5,{16}8b,6,,6,{8}5,4/7,
{16}2/5,3,4,5,6,7,8,1,{4}2/6,{16}8-5[8:1]/4-1[8:1],7/3,{8}6/2,
{1}8b/Cf/E7/E3/4b<4-6-8-2-4[2:7],
,,,{8}5x/6xh[8:3],
5,5,5,5x/4xh[4:1],5,5,5x/7xh[8:3],
5,5,5,5x/3xh[8:3],5,5,5,5/8xh[8:5],
5x,5,5,5,5,4x/6x,,5V71[4:1],
,1V35[4:1],,5,,8,{4}1/7,
{1}B7/E7/B6/B2/E3/B3/Ch[1:3],
E
