&title=彩
&artist=MisoilePunch♪
&first=0
&lv_5=14+
&des_5=虹
&inote_5=(170){4},{1},{4},,{16}E3,
B3,B4,E5,
{4}6xh[4:3],{16},,,,,,,,E3,B3,B4,E5,
{8}7h[8:3],,,5h[8:3],{16},,,,E4,B4,B5,E6,
{8}3xh[4:3],{16},,,,,,,,,,,,7x,6x,
{4}5xh[4:3],{16},,,,,,,,1x,2x,3x,4x,
{8}6,6,1,1,{4}8h[4:1],{16}1x,2x,3x,4x,
{8}7h[8:3],,,5h[8:3],,,{4}6,
{8}2x,2,4,4,3h[2:1],{16},,,,6,5,
{2}4x,{16}3,5,3,5,4,6,4,6,
{8}2b,{16}3,4,{8}3,{16}6,5,{8}7,{16}3,4,{8}3,{16}6,5,
{8}7,{16}3,4,{8}2>1[4:1],{16}4,4,{4}2,{8}5,6,
7b/1,{16}2,4,{8}3,{16}6,6,{8}5,{16}2,4,{8}3,{16}6,5,
4/7,,,1/2,,,{8}3/5,{16},7/8,,,{8}4z8[8:1]/5s1[8:1],2b/7b,
{16},,,,2,4,3,4,{8}2,1/8,{16}7,5,6,5,
{8}7,1/8,{16}3,4,3,4,{24}E3,E4,E5,E6,E7,E8,E1,E2,E3,E4,E5,E6,
{8}8x,{16}8,1,{8}8,{16}8,2,{8}8,{16}8,3,{8}8,{16}8,4,
7b/5b,,,3b/4b,,,{8}2b/8b,{16},5b/6b,,,{8}2b/4b,1b/8b,
,,,,2,3,4,5,
{4}4x/6,5/3,4/6h[8:1],5/3h[8:1],
2/4h[8:1],{8}1>5[4:1]*<5[4:1],1,,,,,{4}5/3h[8:1],
4/6h[8:1],{8}3/5,3,6/4,6,
{16}2h[16:3],,,8h[16:3],,,{8}1,{12}2,4,3,7,5,6,
{8}1bxh[8:3],,,4,1>4[4:1],4,5,6,
7bxh[8:3],,,5,6,4,4,3/5,
{16}2,4,2,4,1,5,1,5,8,6,8,6,1-5b[8:1],7,1,7,
{4}1b,{24}8x,7x,6x,1x,2x,3x,7x,6x,5x,2x,3x,4x,{4}8,
{8}6/2,5,4/3-8[8:1],3,4-7[8:1],4,1,2,
3/8,{16}2,1,{8}2,8/3V51[4:1],3,7b,{4}7b,
{8}7/3x,4,5/6-1[8:1],6,5-2[8:1],5,7,6,
{16}3h[8:1]/5h[8:1],,,6h[8:1]/4h[8:1],,,{8}3/7,{12}2,7,5,6,3,4,
{8}1b,{16}2,8,{8}2,{16}6,5,6,5,7,4,7,4,6,4,
5,5,5,5,{8}5,4/6,3,2/4,1,7/8,
5/6,6,6/4,6,6/3,6,6/2,{16}3,5,
{8}4b,{16}6x,6x,7,7,8,8,1,1,2,2,3,3,4,4,
{1}5b-1[4:3],
E8,
4-8[4:3],
E2,
7>3[4:3],
E1,
3>6[4:3],
{2}B4/B5,{4}2/7,{16}1,8,1,8,
{4}1h[8:3],{8}7<3[2:1],7,{2}1h[4:1],
{4}1x,{8}2,3,4,5,4,5/3,
{16}3h[8:1]/5h[8:1],,,4h[8:1]/6h[8:1],,,{8}5/7,{16}7h[8:1]/5h[8:1],,,2h[8:1]/4h[8:1],,,{8}1/8,
2h[8:3]/7h[4:1],,,7,7,2,{16}2,4,3,4,
{1}5b/2b-5-1-6[4:3],
{4}7h[4:1],5h[4:1],{16}6,5,6,5,{4}7b,
{32}2b,3,4,5,,,8b,7,6,5,,,1b,2,3,4,,,7b,6,5,4,,,{8}2b,1/7,
{32}1,2,3,4,5,6,7,8,1,2,3,4,5,6,7,8,{4}1/5h[4:1],{16}3,4,3,4,
{4}2x/5-1[8:1],{8}5/6,7,8-3[8:1],7,8/6,4,
2/6<2[4:1],4,{16}2/6,3,4,5,{4}6,{16}6,5,6,5,
{4}7x/4-8[8:1],{8}4/3,2,1-6[8:1],2,1/3,5,
7/3>7[4:1],5,{16}7/3,6,5,4,{4}3,{8}5/1-5[8:1],7,
{4}8x/1,{8}7/4,{16}3,4,{8}2,8,5/7,3,
2/4<8[4:1],1,{16}4/8-4[8:1],1,2,3,{8}4,3,2,1-5-1b[4:1],
6,8b,8b,7-3-7b[4:1],2,1b,{4}1b,
{8}2/8,3,4/5,6,{16}7,8,{8}7,{4}6/1,
5x/1-5b[8:1],{8}1b/8b,6,4-7[8:1],5,2/4-1[8:1],3,
4/6,5,{16}8/4,1/5,2/6,3/7,{4}4/8,{16}7,5,6,5,
{4}4x/8-4[8:1],{8}8/1,3,5-2[8:1],4,7/5-8[8:1],6,
5/3,4,{16}1/5,8/4,7/3,6/2,{8}5/1,1/5,2/6,2/6,
{48}7h[2:1]/E4,B4,B5,E6,{4},{16},,{24},{4}5-8[8:1],1b,
{12}2,2,2,8,8,8,{4}1b/7b,{16}2,1,2,1,
{8}3/8,3,{16}3-7[8:1],4,2,5-1[8:1],3b,,,5b,,,{8}3b,
{16}2,8,2,8,3,1,3,1,{32}4,3,2,1,8,7,6,5,4,3,2,1,8,7,6,5,
{2}4/8bqq3[4:3],E5,
{16}1,,,1,,,{8}1,{2}E5,
6qq2[4:3],E5,
{16}3,,,3,,,{8}3,{16}E5,,,6,{8}4,4,
{4}5<2[2:1],4,4,4,
4>7[2:1],5,5,5,
{8}5-8[8:1],4,{4}3,{8}4-1[8:1],5,{4}6,
{8}5-7[8:1],5,4-2[8:1],4,{2}8w4[8:1],
{12}2x,4,3,4-8[8:1],3,5,4x,6,6,1x,7,1,
8,2,7,1-5[8:1],8,2,1x,3,3,4,3,3,
5x,2,4,3-7[8:1],5,2,3x,1,1,8x,1,1,
{4}7>3[4:1],3<7[4:1],{2}7q8[4:1],
{8}1b,2,3/4,{16}6,5,7,,,3/8h[16:3],,,{8}2,
{16}2-5[8:1],1,3,1,{8}2,7,{16}6,6,4,4,7,7,3,3,
{6}8bh[12:1],5bh[12:1]/7bh[12:1],2bh[12:1]/4bh[12:1],5bh[12:1]/6bh[12:1],1bh[12:1]/7bh[12:1],3bh[12:1]/4bh[12:1],
{12}1b/7b,2,3,{48}4,,,5,,,{16}6,7,{32}8,1,2,3,4,5,6,7,8w4b[8:1],1,2,3,4,5,6,7,
{1}8b/Cf,
,4x>8qq4[4:5],
,5x<2q4[4:5],
{8},,,,,,6,7,
{4}8xh[4:1],{8}4,{16}6,5,{8}7,3,4/2,4,
5x/3x,6,{16}7,5,7,5,6xh[16:3],,,5xh[16:3],,,{8}4x,
{1}3pp7[2:1]/6qq2[2:1],
{8}4b/5b,{24}2b,3,4,7,6,5,1,2,3,{16}6bh[16:3],,,2bh[16:3],{32},,,,4b,5,6,7,
8,1,2,3,4,5,6,7,{8}8bx<5[8:1],{16}2,2,{8}8>3[8:1],4,8-4[8:1],4,
8,2,{16}1,4,1,4,2,4,3,5,4,6,5,7,
3,7,5,7,3,7,5,7,1,6,5,6,1,6,5,6,
4b,4/5,,2b/7b,,,1/8,1/8,{8}2b/7b,{16}3,5,4,6,5,7,
1bh[16:3],,,8h[16:3],,,{8}2,1x/7x,6,4/5,2/6,
{12}3/5,3/5,3/5,4v1[8:1]/6v1[8:1],4/6,4/6,{4}4b/6b,{24}2,8,2,8,2,8,
{8}1,1,{16}1,7,2,6,4,5,{24}3,4,3,4,3,4,2x/5x,{48},,,,{16}1bx-3[16:1],
,,1x/7b-5[16:1],,,{8}7x/4b-8[16:1],{16},3b/4x,,,{8}1b,{24}2/8,3/7,6/4,
{4}5pp1[2:1],,,A2f/E2/E3,
{16}3x,4x,3x,4x,,2/8,,5/6,,3,4,1,8,2,7,5,
6,5,{8}6,1/7,3/4,{16}6,5,8,1,7,2,4,3,
6,5,{8}8,{16}5,6,3,4,{8}1,{16}4,3,6,5,8,1,
3,2,,5/7,,1/8,,2,7,3,6,4,5,3,7b,5,
6,5,,4/7,,2/5,,3,4,1,8,5,6,2,4,3,
{8}4,5/2,4/7,{16}6,5,8,1,4,3,7,{32}5b,4,3,2,,,{16}7,
8,7,1,7,{32}2b,3,4,5,,,{16}6,5,7,5,8,{32}4b,3,2,1h[32:5],,,,,7b,
6,5,4,,,,,2b,3,4,5,1b,8,7,6,4b,3,2,1,8,7,6,5,{16}4,,,,4bqq1[4:7]/5bpp8[4:7],
E
&lv_6=14
&des_6=寿司杯笑传之彩Chart摆 不是我草我真不会写啊我草我只会写小歌啊完蛋了啊Feat.AYangTelevision
&inote_6=(170){1},
,
{4}2q5[4:3],,,8,
{8}7p4[4:3],,,3,,,2,1,
8qq3[4:3],,,,,,,{16}4,5,
{4}6p4[2:1],,,{8}3,2,
{4}1V35[2:1],,,{8}6,7,
{8}8V64[2:1],,,3,,,1qq5[4:3],,
6,,,,,,,{16}7,8,
{8}7<4[4:1],,,,{16}3,2,1,8,7,6,5,4,
{8}3/8,7,2/6,3,4/7,6,1-3[8:1]/5,2,
7-5[8:1],8,2-4[8:1],1,8-6[8:1],7,1,2,
5/3,6,7/3,2,1/6,7,8/4,3,
{16}2-5[16:1],,,7-3[16:1],,,4-8[16:1],,,6-1[16:1],,,2qq5[4:1]b,,2,,
{4},{8}8,7,6/2,3,4/7,6,
5/1,2,3/8,7,6/4,3,2/8,7,
6/8,6,4/6,6,2/8,2,4^7[8:1]/2,{16}2h[16:1],,
4^1[16:1],,,4-7[16:1],,,4-1[16:1],,,4-8-4[16:3],,,4,,,,
{4},,{8}E5,B3,B7,E1,
2h[2:1],,3,4,5h[2:1],,1,,
8>4[4:1],,4<4[2:1],,,,,,
7h[2:1],,6,5,4h[2:1],,8,,
{16}1h[16:3],,,2h[16:3],,,5,,{12}2,3,4,5/1,8,7,
{8}6h[2:1],,,5,5h[2:1],,7,,
8>3[4:1],,3<8[8:3],,,,2,,
{16}2,1,3,8,4,7,5,6,3,4,2,5,1,6,8,7,
1b,,,,8<4[4:1],7<3[4:1],6>2[4:1],5>1[4:1],A8,A7,A6,A5,1,8,7,6,
5x,,7,8,6,,3,4,2h[8:1],,8h[8:1],,6h[8:1],,4h[8:1],,
2-4[8:1],,8-4[8:1],,2-6[8:1],,8,,2,,B7,,B3,,,,
7,,2,1,3,,6,5,7h[8:1],,1h[8:1],,5h[8:1],,3,,
7b/E4,,,2b/E6,,,8b/E5,,7x>3[8:1],6,5,4,7,,,,
6,,6,5,6,,6,4,6,5,7,4,8,3,1,2,
7,8,7,,6h[8:1],,5h[8:1],,4h[8:1],,3h[8:1],,2h[8:1],,1h[8:1],,
{8}3,3,3/5,3,7/1,7,7/5,7,
1h[4:1],{32}E2,E3,E4,E5,{16},,5x,1,6,2,7,3,8p4[8:1],4p8[8:1],1,5,
{8},,,6h[8:5],,,,,,,6,5,4,3,4,5,
6,3,6,5,4q5[2:1],,,,
6h[1:1],,,,7,,8,,
1h[2:1],,,2,2h[2:1],,,,
,,4,5,6,3,7,8,
2h[2:1],,,1,1h[4:1],,8w4[4:1],,
8,,,,C1h[4:1],,,,
{16}2h[8:1],,,1,2,,8,,7h[8:1],,,8,7,,1,,
2h[8:1],,,4,3,,5,,6h[8:1],,,8,7,,1,,
2b/4,,,5b,,,6/8b,,1/7b,,,2b,,,3/5b,,
4b/7bpp4[4:1],,,,,,,3,3,,2,,1,,8,,
{1}7p4[2:1],
{2}2-5[8:1]b,{4}6h[4:1],1,
{16}7-4[16:1],,,2-6[16:1],,,5-1[16:1],,,3-8[16:1],,,7pp4[4:1]b,,7,,
{2},{4}3h[4:1],{16}4,5,6,7,
2>5[8:1]/8,,,,2,,7,8,7-4[8:1],,1-6[8:1],,7,,1,,
3h[8:1],,5h[8:1],,6^1[8:1],5,7,4,6b,,,,5,4,3,2,
7<4[8:1]/1,,,,7,,2,1,2-5[8:1],,8-3[8:1],,2,,8,,
6h[8:1],,4h[8:1],,3qq4[4:1],4,2,5,3b,,,,6,,7,,
8h[8:1]/4,,3,,2,1,2,,5/1h[8:1],,6,,7^4[8:1],8,7,,
7,,3,,2^5[8:1],1,2,,2,,7,,6-1[8:1],,5,,
6,,4,,6-1[8:1],,6,5,6,,2h[8:1],,,,1,2,
3/8,,2/7,,6/1,,5/8,,{32}7,6,5,4,3,2,1,8,6,5,4,3,2,1,8,7,
{8}3b-8[8:1]/6b-1[8:1],4b/5b,3b/6b,,{16}2-5[8:1],,8-3[8:1],,2,,8,,
6h[8:1],,4h[8:1],,3>8[8:1],4,2,5,3b,,,,4,5,6,7,
2>5[8:1]/8,,,,2,,7,8,7-4[8:1],,1-6[8:1],,7,,1,,
3h[8:1],,5h[8:1],,6pp5[4:1],5,7,4,6b,,,,4,,3,,
2h[16:3],,,1h[16:3],,,8,,7h[8:1],,5h[8:1],,3h[8:1],,1,,
{12}7b/8,6,5,1b<6[8:1]*<6[8:1]/4,2,3,{16}1b/4b,,,,2,1,3,8,
4,,4/7,,4,5,4,,3/6,,3,7,2,,2/8,,
7/1,6,5,4,{24}3,2,1,8,7,6,{32}5,4,3,2,1,8,7,6,5-1[8:1]b,4,3,2,1,8,7,6,
{2}5,2,
{16}3,,,3,,,3,,{2}4,
5,6,
{16}7,,,7,,,7,,{2}8,
{4}1>4[2:1],8,7,6,
5<8[2:1],4,3,2,
{8}6/1,2,7/3,6,5/2,3,8/4,7,
6/5,4,3/7,8,{32}1/2<6[8:1],3,4,5,6,,,,2,,,,,,,,
{12}3b,4,3,6,5,6,3x,4,2,6b,5,7,
2,1,3,7x,8,6,1b,8,1,2x,3,4,
6b,5,6,3,4,3,6x,5,7,3b,4,2,
7,8,6,2x,1,3,8b,1,8,7x,6,5,
{16}4-7[8:1],,,3,4,,2,,1-6[8:1],,,2,1,,3,,
5,4,5,3,5,,2,1,2,8,2,7,2,6,1,5,
{6}8b/4x,1b/5,2b/6,3b/7,4b/8,5b/1,
{16}6x,5,4,3,2,1,8,7,{24}5x,6,7,8,1,2,3,4,5,6,7,8,
{1}1b,
{4},,,{16}B4,B6,B2,B8,
C1,,,,,,E8,E1,E7,,E2,,E3,,E4,,
E6,,E5,,E1,E8,E7,E6,{4}C1,{16}B5,B3,B7,B1,
C1,,,,,,E2,E1,E3,,E8,,E7,,E6,,
E4,,E5,,E1,E2,E3,E4,{4}C1,{8}1w5[8:1],2/8,
1b,,,{16}7,8,{8}7h[8:1],6h[8:1],5h[8:1],4h[8:1],
3h[8:1],2h[8:1],1h[4:1],{32}E2,E3,E4,E5,{16}E6,,,8,,,7,,
6x,,1x,,8x,,1x,8x,3x,,8x,,1x,,8x,1x,
7b/5b,,,1b/8b,,,2b/4b,,6b/8b,,,4b/5b,,,1b/3b,,
{32}E1,E8,E7,E6,E5,E4,E3,E2,{8}E1f,{16}2x-5[8:1],1x,3x,1x,2x,,7h[8:1],,8h[8:1],,
6h[8:1],,5h[8:1],,7,8,1,2,3,4,5,6,8,1,2,3,
4/8,5,6,7,4/8,1,2,3,4/8,7,6,5,4/8,3,2,1,
8,6,7,1,5,3,4,1,{16}8h[8:1],,7h[8:1],,6,5,4,3,
2h[16:3],,,1h[16:3],,,8,,7h[8:1],,5h[8:1],,3h[8:1],,1,,
{12}7b/8,6,5,1b<6[8:1]*<6[8:1]/4,2,3,{16}1b/4b,,,,2,1,3,8,
4,,8/5,,8,4,8,,7/3,,7,2,6,,6,1,
5^8[16:1],,,5,,,5^2[16:1],,,5,,,5-1[8:1],,,,
5x,,,,4-8[8:1],,,,4x,,,,7,,,,
3,4,3,,4,,2,1,,2,1,3,8,3,8,3,
7,4,7,4,,7,1,8,1,8,1,,7,8,7,8,
6,5,6,,5,,7,8,,7,8,6,1,6,1,6,
2,5,2,5,,2,8,1,8,1,8,,2,1,3,8,
2,1,2,,1,3,4,2,5,3,4,2,5,2,5,2,
6,1,6,1,6,4,5,4,5,4,6,5,7,4,8b,3,
1,2,8,1,7,8,6b,1,2,5,3,4,2,,1b,8,
7,6,5/1b,2,3,4,5/1b,8,7,6,5/1b,2,3,4-8[8:1]b,,,
,4w8[16:27],,,,,,
E
