&title=Last Inferno
&artist=Ceui /「伝説の勇者の伝説」OP2
&first=0.008
&des=寂寞恶魔
&wholebpm=168.000
&lv_5=13
&des_5=
&inote_5=(168)
{4},,,,,
{1},,1bs5[2:3]/7b,,
3b/4b>5[2:3],,2bp2[2:3]/6bq6[2:3],,
{2}1b>8[2:3]/7b<8[2:3],,,,
{8}2,3,4,5,7-4[8:1],5,4,3,
2>5[8:1],1,8,7,6<1[8:1],5,4,3,
{16}2,,2,,2,,2,3,47,,7,,7,,7,6,
51,,1,,1,,1,2,38,7,6,5,4,3,2,1,
8-4[8:1],,8,,3,,1,,2>5[8:1],,2,,6,,7-4[8:1],,
,,8,,,,2<4[4:1],,,,7,,,,,,
2h[1:1]/5qq7[2:3],,,,,,,,,,,,,,,,
,,,,,,,,,,,,,,,,
1<5[8:11]/8>4[8:11],,,,,,,,,,,,,,,,
,,,,,,,,,,,,,,,,
2qq5[2:3]/6h[1:1],,,,,,,,,,,,,,,,
,,,,,,,,,,,,,,,,
7-4[8:11]*z3[8:11],,,,,,,,,,,,,,,,
,,,,,,,,,,,,,,2,,
2pp3[1:1]/5h[2:1],,,,,,,,,,,,,,,,
7h[2:1],,,,,,,,,,,,,,,,
8-4[2:1],,,,,,3,,,,2,,,,,,
3q5[2:1],,,,,,,,,,,,,,7,,
7V51[1:1]/5h[2:1],,,,,,,,,,,,,,,,
3h[2:1],,,,,,,,,,,,,,,,
8-4[2:1],,,,,,2h[8:5],,,,,,,,,,
1pp2[2:1]*qq8[2:1],,,,,,,,,,,,,,,,
1<6[8:1],,,,12,,,,3-5[8:1],,5-1[8:1],,3,,,,
7h[4:1],,,,8,,8-3[8:1],,,,5-1[8:1],,,,2q5[3:1],,
,,,,7,,,,8>3[8:1]*<5[8:1],,,,8,,,,
2h[4:1],,,,4,,4-8[8:1],,,,3,,,,71,,
7/1h[4:1],,,,4,,3h[4:1]/5,,,,7,,,,56,,
47,,,36,,,25,,3-8[8:1]/4-7[8:1],,,,,,,,
1b-4[8:1]/6b-1[8:1],,,,,,,,8b-5[8:1]/3b-7[8:1],,,,,,,,
68,,7,,42,,3,,7,5,6,,4-7[8:1]/3,,1,,
2-5[8:1],,2,,8,,8,,2,4,3,,56,,78,,
7/8>4[4:1],,,,5,6,7,8,1,2,3,4,5,6,7,8,
1q5[8:1]/2>4[8:1],,,,12,,,,7<4[8:1]/8,,,,2h[4:1],,,,
1-5[8:1],,,,4>1[8:1],,,,7-3[8:1],,,,8h[4:1],,,,
4,,2,,35,,7,,5,,46,,2,,4,,
15,8,7,6,5,4,3,2,1/6,7,8,1,2,3,4,5,
6-1[8:1]/8-4[8:1],,,,68,,,,3p7[8:1]/7p3[8:1],,,,37,,,,
1-5[8:1],,1,,6<1[8:1],,6,,2>5[8:1],,2,,8,,8,,
1-5[8:1]*-3[8:1]/7,,,,1,,,,4w8[8:1],,,,4,,,,
2>5[8:1]/6,,,,28,,7,,6<1[8:1],,,,5-1[8:1],,,,
4>1[8:1],,,,7,,7h[4:1],,,,8h[4:1],,,,5,,
5q6[2:1]*q2[2:1],,,,,,,,,,,,,,,,
7qq4[3:1]/4,,,,3,,3,,2,,2,,18,,,,
6h[4:1],,,,5,4,3,2,8,7,6,5,4,3,2,1,
8>6[4:1],,8,,2,,,,1-5[8:1],,,,7>2[8:1],,,,
5h[4:1],,,,4h[4:1],,,,2-5[8:1],,2,,6<4[4:1],,,,
3,,4,,5>7[4:1],,,,8,,7,,6-3[8:1],,,,
2h[4:1],,,,4<7[8:1],,,,8>3[8:1],,,,5-1[8:1],,,,
45,,,,28,,2/8h[4:1],,,,5h[4:1],,,,2,3,
4>5[8:5]*<3[8:5],,,,,,,,,,,,,,,,
{1}8bz4[4:7],
