&title=Chu Chueen!
&artist=Poppin'Party
&first=0
&des=14+什么的才不会写呢!
&clock_count=4
&lv_5=14+
&des_5=
&inote_5=(210)
{1},
{1},
{1},
{16},,,,
,,,,
,,,,
4,6,1h[4:1],,
{16},,,,
5,,5,,
3,,3,,
7,,7,,
{16}1h[4:1],,,,
6,,6,,
2,,2,,
8,,8h[4:1],,
{16},,2,1,
2,,7,,
7,,3,,
3,,5,,
{16}5,,3,4,
2b,,6,5,
7b,,,,
2,,2h[4:1],,
{16},,5,4,
5,,3,,
4,,5,,
6,,5,,
{16}4,,8,1,
8,,6,,
5,,4,,
3,,2h[4:1]/6,,
{16},,4,3,
4,,7,,
8,,1,,
2,,3/7h[4:1],,
{16},,5,,
46,,46,,
37,,37,,
,,2b^5[8:1],,
{16},,7,,
6-8[8:1],,,,
5,,5,,
,,3-1[8:1],,
{16},,6,,
7^4[8:1],,,,
8,,8,,
,,2h[4:1],,
{16},,8,,
8-5[8:1],,,,
1-4[8:1],,,,
6,,6pp5[16:6],,
{16},,5,,
4,,3,,
,,2,4,
3,,6b^1[8:1],,
{16},,3,,
2-4[8:1],,,,
1,,1,,
,,7-5[8:1],,
{16},,2,,
3^8[8:1],,,,
4,,4,,
,,6h[4:1],,
{16},,4,5,
4,,7,,
3-8[8:1],,4-7[8:1],,
3,,4,,
{16}1-5[8:1],,8-6[8:1],,
1,,8,,
2,3,4,5,
8,7,6,5,
{4}1pp4[4:3],5,6,7,
{4}8qq5[4:3],3,2,1,
{4}8pp3[4:3],4,5,6,
{4}7qq4[4:3],4,3,2,
{16}1-4[8:1],,,,
6,,,,
8-5[8:1],,,,
3,,,,
{16}1-5[8:1],,,,
5,,,,
46,,46,,
37,,37,,
{16}2bV85[4:2]/8bV25[4:2],,,,
,,,,
,,,,
,,,,
{16}1,2,3,4,
8,1,2,3,
7,8,1,2,
6,7,8,1,
{16}5>1[4:1],,,,
7,,7,,
6-4[8:1],,,,
8pp3[8:3],,,,
{16}5,,5,,
6,,7h[4:1],,
,,3,,
3,,2,,
{16}1h[4:1],,,,
5<1[4:1],,,,
3,,3,,
4-6[8:1],,,,
{16}7,,7-4[16:2],,
,,3-8[8:1],,
,,5,,
5,,,,
{16}17,,26,,
3/5<1[4:1],,,,
1>5[4:1],,,,
5V71[4:1],,,,
{16}1V35[4:1],,,,
5q1[4:1],,,,
1q5[4:1],,,,
5,,,,
{16}1,,,,
,,24,,
24,,,,
,,3,,
{16},,8-5[8:1]*^5[8:1],,
5-2[8:1]*^2[8:1],,,,
,,,,
1b,,,,
{16}2,,3h[4:1]/4,,
,,6,5,
7p3[8:1],,,,
1,,1,,
{16}2,,4h[4:1]/3,,
,,3,5,
4^1[8:1],,,,
6,,6,,
{16}7,,2/8h[4:1],,
,,4,,
5h[8:1]/6h[8:1],,,,
4h[8:1]/3h[8:1],,,,
{16},,2,6,4>7[4:1],,,,
5,,5,,
6,,,,
{16}7,,6h[4:1]/5,,
,,3,4,
2q6[8:1],,,,
8,,8,,
{16}7,,5h[4:1]/6,,
,,6,4,
5^8[8:1],,,,
3,,3,,
{16}2,,7/1h[4:1],,
,,5,,
43,,2,,
56,,7V15[4:1],,
{16},,4,,
4,,3,,
2-4[8:1],6,2,6,
2b,,,,
{16}3,,2h[4:1]/1,,
,,7,8,
6q2[8:1],,,,
4,,4,,
{16}3,,1h[4:1]/2,,
,,2,8,
1^4[8:1],,,,
7,,7,,
{16}6h[8:1]/5,,2,,
,,3h[8:1]/4,,7,,,,
6h[8:1]/5,,8,,
{16},,3h[8:1]/4,,1,,,,
7,5,6b,,
2,4,3b,,
{16}15,,,,
24,,2,,
35,,3,,
46,,4,,
{16}5/7,,7,,
46,,6,,
3-5[8:1]/5-7[8:1],,,,
,,,,
{16}84,,84,,
73,,37,,
26,,26,,
15,,15,,
{16}2,4,2,4,
3,5,3,5,
1,7,1,7,
8,6,8,6,
{16}1h[8:1],,5,5,
3h[8:1],,7,7,
5h[8:1],,1w5[8:1],,
,,1b,,
{16},,73,,
2,,1,,
8b^3[8:1]/6,,,,
8/6,,5b-7[8:1],,
{16},,53,,
4-8[8:1],,,,
4bV61[4:1]/5b,,,,
2,,2b-5[8:1],,
{16},,28,,
8-4[8:1],,,,
78,,6b-1[8:1],,
5,5,6b,,
{16},,3,4,
3,,5,2,
5,,1v4[8:1]*v6[8:1],,
28,,1b,,
{16},,3,5,
3,5,3,,
6,4,6,4,
6,,1b-5[8:1]/8b-6[8:1],,
{16},,8b-4[8:1]/1b-3[8:1],,
,,1b-5[8:1]/8b-6[8:1],,
,,8b-4[8:1]/1b-3[8:1],,
,,18,,
{16},,6,5,
7,,48,,
3,1,2-6[8:1],,
38,,2b,,
{16},,17,,
35,,28,,
46,,3v8[8:1],5,
3,5,3b,,
{16},,26,,
7,,8,,
1b^6[8:1]/3,,,,
1/3,,4b-2[8:1],,
{16},,46,,
5-1[8:1],,,,
5bV38[4:1]/4b,,,,
7,,7b-4[8:1],,
{16},,71,,
1-5[8:1],,,,
21,,3b-8[8:1],,
4,4,3b,,
{16},,6,5,
6,,4,7,
4,,8^5[8:1]*^3[8:1],,
71,,8b,,
{16},,4,5,
4,,6,5,
6,,3,4,
3,,8h[4:1]/2,,
{16},,4,,
2h[4:1]/6,,,,
8,7,6,5,8,1,2,3,
{16}4h[8:1]/6h[8:1],,,4h[8:1]/6h[8:1],
,,46,,
1b,,,,
,,,,
{16}5h[8:1]/3h[8:1],,,5h[8:1]/3h[8:1],
,,53,,
8b,,,,
,,,,
{16}4h[8:1]/6h[8:1],,,4h[8:1]/6h[8:1],
,,46,,
3h[8:1]/7h[8:1],,,3h[8:1]/7h[8:1],
,,73,,
{16}2b/8b,,,,
,,,,
,,,,
8,,1/7b^4[8:1],,
{16},,27,,
3-1[8:1],,,,
43,,5,,
,,6-8[8:1],,
{16},,36,,
2^5[8:1],,,,
21,,8,,
,,7h[4:1],,
{16},,1,,
1-4[8:1],,2,,
8-5[8:1],,7,,
3,,3qq4[16:6],,
{16},,4,,
5,,6b,,
,,7,5,
6,,3b^8[8:1],,
{16},,63,,
7-5[8:1],,,,
78,,1,,
,,2-4[8:1],,
{16},,72,,
6^1[8:1],,,,
56,,4,,
,,6h[4:1],,
{16},,4,5,
4,,18,,
6,5,6,,
12,,3,4,
{16}3,,78,,
2b,,,,
{24}1,8,1,8-4[8:1],1,8,
1,8,1,8,,,
{16},,,,
35,,2,,
46,,7,,
35,,4,6,
{16}2h[8:1],,4,,
3h[8:1],,5,,
4h[8:1],,6,,
5h[8:1],,7b,,
{16},,8,1,
8,,25,,
25,,6,5,
6,,3,4,
{16}3,,7,,
{32}1b-5[8:1],2,3,4,5,6,7,8,
{16}1b,,,,
6,,4b/7h[4:1],,
{16},,3,5,
4,,26,,
1,,37,,
8,,6,4,
{16}5,,3,4,
1,,56,,
7,,34,,
2,,1h[4:1]/7b,,
{16},,6,5,
8,,24,,
3,,57,,
6,,3/5h[4:1],,
{16},,1,,
82,,82,,
73,,73,,
64,,6bpp1[8:8]/4bqq1[8:8],,
{16},,,,
,,,,
,,,,
,,,,
{16},,,,
,,,,
,,,,
1p8[4:2]/5pp4[4:2],,3b/7b,,
{16},,,,
,,,,
,,,,
,,,,
