&title=INNOCENCE
&artist=藍井エイル
&first=0.485
&des_5=恐龙小谱师
&lv_5=13
&des=恐龙小谱师
&inote_5=(183){16}
,,,,,,,,,,,,,,,,
B6,,B5,,B4,,B3,,,,,,,,,,D3/E3/B3,,,,,,,,C,,,,,,,,
A3,,A4,,A5,,A6,,,,,,,,,,E7/B6/E6,,,,,,{24},A2,A1,{16}A8,,,,,,,,
5bw1[8:4]/Cf,,,,,,,,,,,,,,,,7V58-3[8:4]/Cf,,,,,,2,,,,4,,4,,,,
5b,,,,7,,7,,3,,3,,5,,5,,1,,28,,37,,46,,27,,4,5,4,5,4,5,
3b^8[8:1],,,,7,,,,6,,5,,47,,,,6-1[8:1],,,,2,,4-8[8:1],,,,5,,5,,,,
6^1[8:1],,,,2,,,,3,,4,,52,,,,1^4[8:1],,,,7,,7,,,,63,,4,5,4,5,
3b,,,,6-2[8:1],,6,,3-5[8:1],,3,,7-1[8:1],,7,,2,,2,,43,,5,4,6,,7,,8-3b[8:1]/3-7b[8:1],,,,
8bV25[8:8]/3bV15[8:8],,,,,,,,,,,,,,,,,,,,,,,,3b/7b,,1b/5b,,,,,,
6-1^8-4[8:7],,,,,,,,,,,,,,,,5h[8:3],,,,,,6h[8:3],,,,,,8,,,,
8-4V62[8:7],,,,,,,,,,,,,,,,1h[8:3],,,,,,8,,,,3,,4-7[8:1]/2-5[8:1],,,,
4b>7[4:1]/2b,,,,6,,,,5q1[8:1],,5,,3,,,,2>7[4:1],,,,8,,8-4[8:1],,,,1,,1<3[4:1],,,,
6,,,,8,,8V62[4:1],,,,2<3[8:3],,3,,4,,,,1,,1,,1,,2b/5b,,3,4,3,4,3,4,
2V85[4:3],,,,4,,,,4,,,,4,,,,4h[4:1],,,,3,,3h[4:1],,,,2,,2,,,,
1V36[4:3],,,,7,,,,7,,,,7,,,,8h[4:1],,,,1,,,,6-2[8:1]/2-5[8:1],,,,26,,,,
8b<3[4:1],,,,2,,,,1q5[8:1],,1,,7,,,,6<3[4:1],,,,4,,4-1[8:1],,,,6,,6>8[4:1],,,,
2,,,,4,,4qq6[4:1],,,,6<4[8:3],,7,,8,,,,5,,5,,5,,7b/4b,,6,5,6,5,6,5,
7xV58V26b[8:6]/A2/E3f/A3,,,,,,,,3,,3,,3,,3,,3,,3,,47,,47,,5-1[8:1]/8-6[8:1],,,,58,,,,
2xV48V61b[8:6]/E8/A7f/E7,,,,,,,,5,,5,,5,,5,,5,,5,,42,,42,,3-6[8:1]/1-5[8:1],,,,31,,,,
7x-3[8:1]*-5[8:1],,,,7,,,,24,,24,,3,,5-1[8:1]/6,,,,8,,8qq5[8:3],,,,1,,2,,3,,4>5[8:5],,
,,,,,,,,,,,,,,,,3b/4b,,5b/7b,,,,,,5b/8b,,2b/6b,,,,1,,
1xb^6[8:1],,,,4,,4-8[8:1],,,,5^2[8:1],,,,1-4V62[16:5],,,,8,,,,7<8[16:5],,,,1,,1,,,,
3-7[8:1],,,,8,,8h[4:1],,,,7>5[4:1],,,,6,,,,7,,7,,5,,4/3-6[8:1]*-7[8:1],,,,3,,,,
4h[4:1],,,,2,,1pp8[16:5],,,,7,,6,,,,5h[4:1],,,,7,,8<4[6:1],,,,2,,3w7[8:1],,,,
3,,,,15,,2,,34,,5<4[8:3],,6,,7,,,,6,,6,,6,,7b/1b,,6,5,4,3,2,1,
4^7[8:1]/8,,,,8,,8q4[8:1],,,,2-6[8:1],,,,5-1^8-3[16:5],,,,7,,,,6<5[16:5],,,,4,,4,,,,
2,,,,34,,6/5-1[8:1],,,,5/8>6[8:2],,,,8b/3b,,,,2,,4,,56,,7v4[8:1]/8-3[8:1],,,,78,,,,
6,,5,,34,,2,1,2,,38,,47,,5>1[6:1]/6,,,,8,,6,,4<8[6:1],,,,2,,2,,,,
3,,4,,65,,7,8,7,,61,,5^8[8:1]/2^5[8:1],,,,5qq4[6:1]/2,,,,7,,7,,6,,4,5,3,4,2,5,
1b-6[8:1],,6,,1,,7-4[8:1],,4,,7,,2-5[8:1],,5,,2,,8-4[8:1],,4,,8,,1w5[8:1],,,,1,,,,
3b/7b,,,,2,,4h[8:1],,1,,5h[8:1],,8,,6h[8:1],,7,,45,,8,,45,,1,,34,,2,,34,,
1b/5b,,,,2,4,2,4,3,5,3,5,4,6,5,7q5[16:3],1bp3[8:1],,,,,,,,6x^1[8:1],,,,{32}62,3,4,5,{16},,
5bx^2[8:1],,,,5/8,,6b-1[8:1],,,,1,,2,,3b/4b,,,,6,5,7,,8b/1b,,,,3,,5b/6bqq1[8:16],,8b/2bqq5[8:15],,
,,,,,,,,,,,,,,,,,,,,,,,,,,,,,,,,
E
