&title=Journey (Remake ver.)
&artist=ARForest
&first=-0.15
&des=Shingura
&lv_5=14
&inote_5=(200){4},,{2}3<6[2:1]/7>2[2:3],
,6>3[2:1],
,3<6[2:1]/7>2[2:3],
,6>3[2:1],
,6>3[2:1]/2<7[2:3],
,3<6[2:1],
,6>3[2:1]/2<7[2:3],
,3<6[2:1],
,4>1[2:1]/5<8[2:3],
,1>4[2:1],
,7v2[2:1],
,3v6[2:1],
,2v7[2:1],
,6v3[2:1],
,5v7[4:5]/4v2[1:1],
{8},,,,,,,,,,,,4/5,
,,4,
,,{4}4-2[4:1],{8}4/5,,,5,
,,{4}5-7[4:1],{8}5/4,,,4,
,,{4}4-1[4:1],{8}4/5,,,5,
,,{4}5-8[4:1],{8}5/4,,,3,
,,{4}1-3[4:1],{8}1/8,,,8,
,,{4}8-6[4:1],{8}8/1,,,1,
,,{4}1-4[4:1],{8}1/8,,,8,
,,{4}8<3[4:5],{2}8h[2:3],
{8},,,,,,,,2,
2,3<8[4:5],3,{2}3h[2:3],
{8},,,,,,,,1,
1,8q5[4:5],8,{2}8h[2:3],
{8},,,,,,,,4,
4,3p6[4:5],3,{2}3h[2:3],
{16},,,,,,,,,,,,,,,,6,
7,8,1,2,3,{24}4,{48},5,,,{2}6b,
{8}2h/7-5[8:1],2h,3h,3h,{2}2h/7-5[8:1],
7-5[8:1],2h/7-5[8:1],
{48}1bh/7-5[8:1],2h,{24}3h,,,,,,,,,,,{8}4h/7-5[8:1],4h,3h,3h,
2h/7-5[8:1],2h,,,{2}2-4[8:1],
{4}2-4[8:1],{32}5h,6h,7h,8h,,,,,{2}2-4[8:1],
2-4[8:1],2-4[8:1],
{48}8bh/2-4[8:1],7h,{24}6h,,,,,,,,,,,{8}6,6,7/4V28[4:1],4/7,
{2}4h[4:1],{8}3,3,4,4,
{4}5h[4:1],4,{8}3,2,3,4h[8:3],
,,{4}5,{8}6,6,5,5,
{48}8bh/4h[8:1],7h,{24}6h,,,,,,,,,,,{8}6,7,6,5,
,4,,,3,{16}3,4,{8}3,3,
{64}E3/E7,{192}E6,E2,,,,E1,E5,{4},{16},,,{96},{8}5/3,2V48[8:3]/6V48[8:3],5/3,6/2,
,,,,6,{16}6,5,{8}6,6,
{64}E7/E3,{192}E4,E8,,,,E1,E5,{4},{16},,,{96},{2}Cf,
{8},,,,Ch[4:15],,,E1,
,,{4}E2,{8},E3,,,{4}E4,
E5,{8}E6,,,E5,
,,{4}E4,{8},E3,,,{4}E2,
E1,{8}4/8xp3[2:3],,,5,
,,{4}6,{8},7,,,{4}8,
1,{8}4/2xp5[2:3],,,3,
,,{4}2,{8},1,,,{4}8,
7,{8}1-5[8:1],7,1-3[8:1],7,
1>7[1:1],7,{4}1,{8},,,,,,,,8-4[8:1],
2,8-6[8:1],2,
8<2[1:1],2,{4}8,{8},,,,,,,,4-8[8:1],
6,4-2[8:1],6,
4>6[1:1],6,{4}4,{8},,,,,,,,5-1[8:1],
3,5-7[8:1],3,
5<3[1:1],3,{4}5,{8},,,,,,,,4,
3,2,1,
8-5-2-7[1:1],7,{4}8,{8},,,,,,,,5,
6,7,8,
1-4-7-2[1:1],2,{4}1,{8},,,,,,,,1,
2,3,4,
5-1-7-3[1:1],6,{4}5,{8},,,,,,,,8,
7,6,5,
4-8-6-2[1:1],3,{4}4,,,,,{2}5V71[2:3]*s1[2:3],
,,,4V28[2:3]*s8[2:3],
,,,5<8[2:3]/4>1[2:3],
,,,5s1[8:5]/4z8[8:5],
{32},,,,,,,,,,,,,,,,B1,B2,B3,B4,B5,B6,B7,B8,{4}Ch[8:1],
{16}8bx-4[8:1],8x,8x,8x,{4}8bx,{8}3h[8:1],{16}5,4,{8}6h[8:1],2,
7/4,7/4,6/1-5[8:1],6/1,{4}8h[8:1]/1-3[8:1],7h[8:1]/1-5[8:1],
8h[8:1]/1>5[8:1],1/7h[8:1],{8}3h[8:1],{16}5,4,{8}6h[8:1],2,
7/4,7/4,6/1-5[8:1],6/1,{4}8h[8:1]/1-3[8:1],7h[8:1]/1-5[8:1],
8h[8:1]/1-3[8:1],1/7h[8:1],{8}4h[8:1],{16}6,5,{8}7h[8:1],{16}3,4,
{8}2,1,8/1-5[8:1],7,{4}6h[8:1]/1-3[8:1],6h[8:1]/1-5[8:1],
1/6h[8:1],{8}7/4,7/4,2-6[8:1],6,2,7-3[8:1],
3,7,1-5[8:1],5,1,8-4[8:1],4,8,
3<1[4:1],6,{4}3,{16},,5,4,{8}6h[8:1],2,
5/1,5/1,3-1[8:1]/7-5[8:1],6/2,{4}3-5[8:1]/7-1[8:1],3-1[8:1]/7-5[8:1],
3-5[8:1]/7-1[8:1],3/7,{16},,5,4,{8}6h[8:1],2,
5/1,5/1,3-1[8:1]/7-5[8:1],6/2,{4}3-5[8:1]/7-1[8:1],3-1[8:1]/7-5[8:1],
7/3,{16}8,4,8,4,4bxh[8:1]/8bxh[8:1],,,1x/5x,,,{8}5bxh[8:1]/1bxh[8:1],
{16},6x/2x,,,8bxh[8:1]/1bxh[8:1],,,7x/2x,,,5,6,5,6,4,6,
3,6,2,6,1,6,8,6,{8}7xh[8:1],{16}6x,5x/8x,,,{8}5h[16:1]/1h[16:1],
{16},,,,5/1,2,3,4,2/5,3,4,5,6/3,4,5,6,
7/4,5,6,7,8/5,6,7,8,{8}6h[8:1],{16}4,5,{8}3h[8:1],7,
2/5,2/5,3/8-4[8:1],3/8,{4}1h[8:1]/8-6[8:1],2h[8:1]/8-4[8:1],
1h[8:1]/8<4[8:1],8/2h[8:1],{8}6h[8:1],{16}4,5,{8}3h[8:1],7,
2/5,2/5,3/8-4[8:1],3/8,{4}1h[8:1]/8-6[8:1],2h[8:1]/8-4[8:1],
1h[8:1]/8-6[8:1],8/2h[8:1],{8}5h[8:1],{16}3,4,{8}2h[8:1],{16}6,5,
{8}7,8,1/8-4[8:1],2,{4}3h[8:1]/8-6[8:1],3h[8:1]/8-4[8:1],
8/3h[8:1],{8}2/5,2/5,1-5[8:1],8,1,7-3[8:1],
8,7,5-1[8:1],4,5,3-7-1-6-2[2:1],4,3,
A7,A1,A6,A2,6h[8:1],{16}4,5,{8}3h[8:1],7,
2/5,2/5,3/8-5[8:1],3/8,2/8-3[8:1],1,6/8-5[8:1],7,
2/8-3[8:1],1,{4}8/6,{8}3xh[8:1],{16}5,4,{8}6h[8:1],2,
7/4,7/4,6/1-4[8:1],6/1,7/1-6[8:1],8,3/1-4[8:1],2,
{4}7/1,{16}8,4,8,4,8bxh[8:1]/4bxh[8:1],,,1x/5x,,,{8}1bxh[8:1]/5bxh[8:1],
{16},8x/4x,,,4bxh[8:1]/5bxh[8:1],,,3x/6x,,,4,3,4,3,5,3,
6,3,7,3,8,3,1,3,{8}2h[8:1],{16}3,4/1,,,{8}4h[16:1]/8h[16:1],
{16},,,,4/8,7,6,5,4/8,1,2,3,4/8,5,6,7,
8/6b,7,8,1,7b/2,8,1,2z6[16:25],{1},,{2}3<6[2:1]/7>2[2:3],
,6>3[2:1],
,3<6[2:1]/7>2[2:3],
,6>3[2:1],
,6>3[2:1]/2<7[2:3],
,3<6[2:1],
,2<7[2:3]`6x>3b[8:1],
,3<6[4:1],
,5x<8[2:3]`4x-1b[8:1],
,1>4[2:1],
{16},,,,,,,,7x-2b[8:1],7xh,,,{4}7xh,
,,{2}3v6[2:1],
,5bw1b[4:5],
E
