&title=Everything is a lie
&artist=Sefa & Dr.Peacock
&des=EteRniTy
&first=0
&demo_seek=94.8
&demo_len=19.2
&lv_5=15
&des_5=
&inote_5=
(200){4},{1},,,,{4},,,{16},4,
{8}5h[16:7],{16},,,,,,,,,,,,6,
5h[4:3],,,,,,,,4,,,,3,,,,4,
{8}3h[16:19],{16},,,,,,,,,,,,,4,
{8}5,{16},6,,,,8h[4:1],,,,7h[4:1],,,,6h[1:1],
,,,,,,,,,,,,,,,5,
{8}4h[16:15],{16},,,,,,,,,6,,,,5,
,,,,,,,,,,,,,,,4h[4:1],
{8}5h[16:7],{16},,,,,,,,,,,,,6,
{8}5h[16:15],{16},,,,,,,,,,,,,4h[4:3],
,,,,,,,3,,,,2,,,,2,
{8}3h[16:15],{16},,,,,,,,,,,,,1h[2:1],
,,,,,,,2h[4:1],,,,3h[4:1],,,,4h[2:5],
,,,,,,,1,,,,1,8,7,
6,5,,,,,,,,2,,,,1,,,,8h[1:1],
{1},{4},,,{16},,,8h[1:1],
,,,,,,,,,,,,,,,7h[2:1],
,,,,,,,6h[4:1],,,,5h[4:1],,,,7,
{8}6h[16:15],{16},,,,,,,,,,,,,1h[2:1],
,,,,,,,2h[4:1],,,,3h[4:1],,,,4h[1:1],
,,,,,,,,,,,,,,,5h[1:1],
,,,,,,,,,,,,,,,6h[4:5],
,,,,,,,,,,,,,,,3h[2:1],
,,,,,,,,,,,,,,,2,
{8}1h[16:15],{16},,,,,,,,,,,,8,
7h[16:17],,,,,,,,6,,,,5,,,,4,
{8}3h[16:19],{16},,,,,,,,,,,,,5h[2:1],
,,,,,,,,,,,,,,7,
6h[1:3],,,,,,,,8,,,,8,1,2,
3,4,,,,,,,,5,,,,4,,,,3h[1:1],
{1},{4},,,{16},,,7h[8:5],
,,,,,,,,,,,,,,,3b,
,,,5b,,,,,,,,,,,,2h[1:1],
,,,,,,,,,,,,,,,1h[2:1],
,,,,,,,4h[4:1],,,,6h[4:1],,,,8h[16:9],
,,,,,,,,,,,,,,,4b/5h[16:33],
,,,3b,,,,,,,,,,,,,{8}3h[1:1],
{1},{4},,,{16},6h[1:2],
,,,,,,,,,,,,,,,4,
,,,3,,,,2,,,,1,,,,8h[1:1],
,,,,,,,,,,,,,,,4h[4:1],
,,,,,,,1,,,,2,,,,3h[1:1],
,,,,,,,,,,,,,,,4b,
,,,5b,,,,,,,,,,,,6h[4:1],
,,,7h[4:1],,,,8h[4:1],,,,1h[4:1],,,,2h[2:1],
,,,,,,,,,,,,,,,1/8,
,1,,1,,,,2/7,,7,,7,,,,6/3,
,3,,3,,,,5/4,,4,,4,5,4,
,5/4,,5,,5,,,,6/3,,3,,3,,,,2/7,
,7,,7,,2,,1/8,,7,,8/1,,2,
,1/8,,1,,1,,,,2/7,,7,,7,,,,6/3,
,3,,3,,6,,4,5,4,,5,4,5,
,5/4,,3,,5/4,,6,,4/3,,8,,6/5,,1,
,7/2,,6,,7/2,,3,,7/2,,1,,7/2,,8,
,1,,,,1,,,,1,,,,1,,,,1,
,,,1,,,,1,,,,1,,,,1,
,8,,1,,8,,1,,8,,1,,8,
,1,8,1,8,1,8,1,8,1,8,1,8,1,8,1,
8,1,,,,,,,,8,,,,8,7,6,
5,4h[2:3],,,,,,,,7,,,,6,,,,5h[1:1],
{1},,,{4},,,{16},,,5,
,4h[32:1],,5,,3h[32:1],,5,,2h[32:1],,5,,1h[32:1],
,5,,8h[32:1],,5,,7h[32:1],,5,,6h[32:1],,5,,,,4,
,8h[32:1],,4,,7h[32:1],,4,,6h[32:1],,4,,5h[32:1],
,4,,4,,4,,4,,4,,4,,4,,4,
,4,6,3,7,3,7,3,7,3,7,3,7,3,7,3,
7,2,8,2,8,2,8,2,8,2,8,2,8,2,8,2,
8,1,1,1,1,1,1,1,1,1,1,1,1,1,1,1,
1,1,8,2,7,3,6,4,5,3,2,1,8,7,6,5,
,4/3,,8,,6/5,,1,,4/3,,8,,6/5,,1,
,4/3,,8,,6/5,,1,,4/3,,8,,1,8,1,
8,1/7,,5,,2/8,,4,,7/1,,5,,8/2,,4,
,7,,7,,7,,7,,8/1,,8/1,7/2,6/3,,6/3,
,4/5,,3,,5/4,,3,,4/5,,6,,5/4,,6,
,5/4,,4/2,,5/7,,6,,4/2,1,8,7,6,,6,
,7/5,,6,,4/2,,3,,7/5,,6,,4/2,,3,
,8/1,,8/1,,1/8,,1/8,,2/1,8/3,7/4,,8/7,6/1,5/2,
,4/3,,2,,4/3,,2,,5/6,,7,,6/5,,7,
,8/2,,4,,7/1,,5,,8/2,3,4,5,6,,6,
,7/1,,8,,7/1,,1,,8/2,,1,,8/2,,8,
,7/1,,7/1,,7/1,,8,,2,3,4,5,7,6,5,
4,1/3,,2,,1/3,,2,,1/7,,8,,7/1,,8,
,7/5,,6,,7/5,4,3,2,1/8,,7,,6/5,4,3,
2,1b/8b,,,,,,6,,6/5,,,,4/3,,3/4,
,8b,7,6,5,2b,3,4,5,7b,6,5,4,3b,,,,8h[32:1],
,8h[32:1],,1b/8h[32:1],,8h[32:1],,1b,,6/8,,7,,5/6,
,2/4,,8,,2/4,,8,,5/7,,1,,5/7,,1,
,8h[32:1],,8h[32:1],,1h[32:5],,,,8h[32:1],,1h[32:5],,,,8h[32:1],
,1h[32:5],,,,8h[32:1],,1h[32:5],,,,8h[32:1],,7,6,5,
4,3/2,,1,,7/8,,1,,7/8,,6,,5/4,,3,
,1/2,,8,,2/1,,3,,2/1,,1,,1/7,,8,
,7/1,,6/4,,8/2,,1,,1/3,,2,,2/4,,3,
,3/5,,7,,6/4,,2,,5/3,,7,,6/4,,2,
,8/2,,5/4,,7/1,,8,,8/2,,1,,1/3,,2,
,2/8,,1,,7/1,,8,,7/1,,8,,6/5,4,3,
2,1h[32:1],,1h[32:1],,8h[32:5],,,,1h[32:1],,8h[32:5],,,,1h[32:1],
,8h[32:5],,,,1h[32:1],,8h[32:5],,,,1h[32:1],,2,3,4,
5,6/7,,8,,1/2,,3,,4/5,,6,,5/4,,3,
,5/4,,8/7,,5/4,,2/1,,5/4,,7/8,,5/4,,,,4h[4:1]/3h[4:1],
,,,,,,,5h[8:3],,6h[4:1],,,,,,8/7,
,1,,2/3,,,,6,5,6,,3,4,3,
,5b/4b,{1},,,{4},,,{16},,,3h[32:5],
,,,4h[32:1],,3h[32:5],,,,4h[32:1],,3h[32:5],,,,4h[32:5],
,,,3h[32:1],,4h[32:5],,,,3h[32:1],,4h[32:5],,,,3h[32:5],
,,,4h[32:1],,3h[32:5],,,,4h[32:1],,3h[32:5],,,,4h[32:5],
,,,3h[32:1],,4h[32:5],,,,3h[32:1],,3h[32:1],,,,2,
1,2,,7,8,7,6,5h[2:1],,,,,,,,1h[4:1],
,,,2h[4:1],,,,3h[4:1],,,,,,,,6/5,
7,8,,1,,6/5,7,8,,1,,1,8,1,
,7h[16:1],,6h[16:1],,5h[16:1],,,,4h[2:1],,,,,,,,5,
,5,,5,,5,,5,,5,,5,,5,
,5,4,5,4,5,4,5,4,5,4,5,4,5,4,5,
4,6,3,6,3,6,3,6,3,6,3,6,3,6,3,6,
3,7,2,7,2,7,2,7,2,7,1,8,2,7,1,8,
2,7,6,5h[8:13],,,,2,1,8h[4:1],,,,,,,,1h[16:3],
,,,2h[16:3],,,,3h[4:1],,,,,,,,5/4,
,7/1,,5/4,,8/2,,5/4,,7/1,,5/4,,2/8,
,5/4,,7/1,,5/4,,8/2,,5/4,,7/1,,5/4,,8/2,
,5/4,,6,7,8,,5/4,,3,2,1,,7/8,,6/5,
,4h[16:1],,3h[16:1],,2h[16:1],,,,,{8}1h[4:1],{16},,,,,6/4,
,7/1,,5/3,,8/2,,6/4,,7/1,,5/3,,8/2,
,3/4,,8/1,,6/5,,8/1,,4/3,,1/8,,6/5,,8/1,
,3/5,,,,6/4,,,,7/2,,8/3,,7/2,,6/1,
,5h[4:1]/8h[4:1],,,,,,,,4h[4:1]/1h[4:1],,,,,,,,6/5,
,4/3,,6/5,,7/1,,4/3,,8/2,,6/5,,7/1,
,4/3,,8/2,,6/5,,7/1,,4/3,,8/2,,6/5,,7/1,
,4/3,,2,1,8,,6/5,,7,8,1,,2,,3/4,
,5,,6/7,,8,,4/1,3,2,,2,,2,,,,7/5,
,8/1,,4/2,,7/5,,8/1,,4/2,,7/5,,8/1,
,5/3,,7/1,,6/4,,8/2,,5/3,,7/1,,6/4,,8/2,
,6/1,7/2,3h[16:5]/8h[16:5],,,,,,7/2,6/1,5h[8:1]/8h[8:1],,,6/1,7/2,
8/3,7h[4:1]/6h[4:1],,,,,,,,3h[4:1]/2h[4:1],,,,,,,,1b/8b,
,,,,,,,,,,,,,,,1h[1:1],
,,,,,,,,,,,,,,,2h[1:2],
{1},{4},,,{16},,,3h[1:1],
,,,,,,,,,,,,,,,4h[2:5],
,,,,,,,,,,,,,,,6h[2:3],
{1},{4},,,{16},,,1,
,,,1,,,,1,,,,1,,,,1,
,,,1,,,,1,,,,1,,,,1,
,8,,1,,8,,1,,8,,1,,8,
,1,8,1,8,1,8,1,8,1,8,1,8,1,8,1,
8,1/2,,2/1,,3/4,,3/4,,5/6,,6/5,,7/8,,8/7,
,1/3,,3/1,,2/4,,2/4,,3/5,,3/5,,4/6,,6/4,
,5,7,5,7,5,7,5,7,5,7,5,7,5h[32:1],,5h[32:1],
,5h[32:1],,5h[32:1],,5h[32:1],,6h[32:1],,5h[32:1],,5h[32:1],,,{8}6h[32:1],
{16},3/4,,8/1,,6/5,,8/1,,3/4,,4/2,,4/1,,8,
1,8,1,8,{4}1h[16:9],{16},,,,,,,,,6b/4b,
,7b/1b,,5b/3b,,8b/2b,,6b/4b,,7b/1b,,5b/3b,,8b/2b,
,6b/4b,,7b/1b,,5b/3b,,8b/2b,,6b/4b,,7b/1b,,5b/3b,,8b/2b,
,6b/5b,,8b/1b,,4b/3b,,8b/1b,,6b/5b,,8b/1b,,4b/3b,,8b/1b,
,5b/6b,,8b/1b,,3b/4b,,8b/1b,,6b/5b,,1h[32:1],8h[32:1],1h[32:1],8h[32:1],1h[32:1],
8h[32:1],5b/4b,,2b/8b,,5b/4b,,7b/1b,,5b/4b,,8b/2b,,5b/4b,,7b/1b,
,5b/4b,,2b/8b,,5b/4b,,7b/1b,,5b/4b,,2b/8b,,5b/4b,,7b/1b,
,5b/4b,,6b/2b,,8b/3b,,6b/1b,,7b/2b,,5b/8b,,1b/3b,,8b/7b,
6b/1b,2b/5b,,,,,,,,3h[32:1],,3h[32:1],,3h[32:1],,3h[32:1],
,5b/4b,6,7,,5b/4b,3,2,,5b/4b,6,7,,5b/4b,3,2,
,5b/4b,6,7,,3b/4b,2,1,,5b/6b,7,8,,7,6,5,
,8b/2b,3,4,,7b/1b,6,5,,8b/2b,3,4,,7b/1b,6,5,
,3,2,1,,8,7,6,,7,6,5,,6,5,4,
,1b/2b,3/8,7/4,,7b/8b,6/1,5/2,,6b/5b,7/4,8/3,,3b/4b,2/5,1/6,
,7h[1:1],,,,8h[32:1],,8h[32:1],,8h[32:1],,8h[32:1],,8h[32:1],,8h[32:1],
,8b,,,,2/1,,,,6b/1b,,,,8/7,,,,,,,,,,,,4b/5b,
,,,8/1,,,,6b/5b,
,7b/1b,,3b/4b,,8b/2b,,6b/5b,,7b/1b,,3b/4b,,8b/2b,
,6b/5b,,7b/1b,,3b/4b,,8b/2b,,1,8,1,,1h[32:1],,1h[32:1],
,5b/3b,,7b/1b,,6b/4b,,8b/2b,,5b/3b,,7b/1b,,6b/4b,,8b/2b,
,5b/3b,,7b/1b,,6b/4b,,8b/2b,,5b/3b,,7b/1b,,8h,8h,8h,
8h,5b/6b,,7b/8b,,3b/4b,,2b/1b,,5b/6b,,7b/8b,,3b/4b,,2b/1b,
,5b/6b,,7b/8b,,3b/4b,,2b/1b,,5b/6b,,7b/8b,,1h[32:1],,1h[32:1],
,8b,,8b,,8b,,,,1b,7b,1b,7b,1b,,2b/8b,
8b/2b,2b/8b,,,,1h[16:1],{32},,,2h[16:1],,,,,,,{16}3h[32:1],,3h[32:1],,3h[32:1],
,5b/4b,,7b/8b,,5b/4b,,7b/8b,,5b/4b,,2b/1b,,5b/4b,,2b/1b,
,5b/4b,,7b/8b,,5b/4b,3,2,,6,7,8,,1h[32:1],,1h[32:1],
,1b,,7b/4b,,5b/8b,,7b/4b,,5b/8b,,2b/5b,,4b/1b,,2b/5b,
,4b/1b,,8h[32:1],,8h[8:1],,,,7,6,5,,4h[32:1],,4h[32:1],
,6b/5b,,1b/2b,,4b/3b,,7b/8b,,6b/5b,,1b/2b,,4b/3b,,7b/8b,
,6b/5b,,,,3,,,,2,,,,1,,,,7b/8b,
{32},,,,,,7,6,{8}5,{16},2b/1b,{32},,,,,2,3,4,,,,,,,{16}5b,
{32},6h[32:1],,,,,{16}5b,{32},7h[32:1],,,,,{16}8b,,8b,,1b,,1b,
,2b,
E
