&title=Magical Panic Adventure
&artist=削除
&first=0
&des=ALiSz in Wonderland
&lv_5=14+
&inote_5=(290){2},4x/5x,B6/E6/B2/E3,4x/5x,B3/E4/B7/E7,
1x/8x,B7/E8/B3/E3,1x/8x,{4}B2/E2/B6/E7,
{8},4x/5x,{2}5h[2:5],B5/B6/E6,B3/B4/E4,B1/B2/E2,{4}2,8,
{8}6h[2:3],E7,E8,E1,{4}E2,2,1,8,
7h[1:1],,8,2,4h[1:1],5,7,1,3h[2:1],Ch[4:3]/B3f,{8}E4,E5,E6,E7,{4}E8,
8x,7,8,1>5[4:3],,5,7,1<5[4:3],,5,3,
1^3[4:1],8,7^1[4:1],6,5^7[4:1],4,3^5[4:1],2,
1-3[4:1],1,7-5[4:1],7,1-6[4:1],8-3[4:1],1-5[4:1],8-4[4:1],
{2}3xv8[4:1],2xv7[4:1],8bx-4[4:1],
(145){4}1b^4[2:1],Ch[2:7],
,,4^1[2:1],,,,1<6[2:1],,,,6<4[2:1],,,,,
{32}6-3[8:1]/2-7[8:1],E3/E7,B3/B7,B4/B8,{8}E5/E1,2b/6b,,
{32}3-6[8:1]/7-2[8:1],E7/E3,B6/B2,B5/B1,{8}E5/E1,7b/3b,,
{32}1<6[8:1]*<5[8:1]b*<4[8:1],E2,E3,E4,{8}E5,1b,,
{32}8>3[8:1]*>4[8:1]b*>5[8:1],E8,E7,E6,{8}E5,8b,,
{1}1b<5[2:3]*>5[2:3]/Cf,,
(290){12}5h[8:3],,,4,,4,5h[4:1],,,4,,,5h[8:3],,,4,,4,5h[4:1],,,4,,,
5h[8:3],,,4,,4,5h[4:1],,,4,,,5h[8:3],,,4,,4,5h[4:1],,,4,,,
7,,4h[16:5],C,,C,2,,5h[16:5],C,,C,6,,3h[16:5],C,,C,1,,8h[16:5],C,,C,
6,,1h[16:5],C,,C,3,,8h[16:5],C,,C,7,,2h[16:5],C,,C,4,,5h[16:5],C,,C,
7,,4h[16:5],C,,C,2,,5h[16:5],C,,C,6,,3h[16:5],C,,C,1,,8h[16:5],C,,C,
6,,8h[3:1],{4}C,1h[2:1],C,2h[2:1],C,3h[2:1],C,
{12}4,,1,8,,C,6,,C,8,,3,4,,2,2h[6:1],,Ch[3:1],,,,{4}1b,
{6}5,34,23,24,35,46,{12}5/7x,,{12}7h[6:1],,Ch[3:1],,,,{4}8b,
{12},6,,1,8,,3,4,,2,1,,5,6,,3,Ch[6:1],,1,,,2,4,,3,
5,,5,1,,1,7,,7,3,,3,4,,4,5,,5,6-3[8:1],,,6b`A3f,,,
{12}4,,4,3,,4,5,,4,2,,4,6,,4,1,,4,7h[4:1],,,8b,,,
5,,5,6,,5,4,,5,7,,5,3,,5,8,,5,2h[4:1],,,1b,,,
5h[4:1],,,4,,4,6,,6,2,,2,4,,4,1,,1,3,,3,5,,5,
7,,7,1h[4:1],,,Ch[4:1],,,3,,3,4,,4,5,,5,6,,6,7,,7,
{2}8h[1:2],,Ch[2:1]/B3/B2/E3,,2h[1:2],,Ch[2:1]/B7/B8/E8,,
4h[1:2],,Ch[2:1]/B7/B6/E7,,6h[2:3],B2/B1/E2,Ch[2:1]/B3/B4/E4,B6,
{8}5h[4:1],,3,3,5h[4:1],,3,,5h[4:1],,6,,5h[4:1],,4,,
5h[4:1],,B7/E7,,5h[4:1],,B2/E3,,5h[4:1],,B5/E6,,5h[4:1],,B4/E4,,
{8}4h[4:1],,6,6,4h[4:1],,6,,4h[4:1],,3,,4h[4:1],,5,,
4h[4:1],,B2/E3,,4h[4:1],,B7/E7,,4h[4:1],,B4/E4,,4h[4:1],,B5/E6,,
{2}4bx,6b/7b,1b/8b,2b/3b,
{6}3x/4xh[2:1],2,1,8h[2:1],6,5,4h[2:1],1,8,7h[2:1],5,4,
3h[6:1],7h[6:1],4h[6:1],8h[6:1],5h[6:1],1h[6:1],
6h[6:1],5h[6:1],4h[6:1],3h[6:1],2h[6:1],1h[6:1],
{1}8>2>4<6<8>2>4[4:6]*<6>4>2<8<6>4[4:6],,{4}Ch[2:3]/B6/B7/E7,,,,6,6,6,2-6[8:1]/8,
2b/7v4[8:1],3-8[8:1],5-1[8:1],2-6[8:1],8-4[8:1],3-7[8:1],6-3[8:1],2-6[8:1],
5-1[8:1],1^8-6[8:1]*^2-4[8:1],1b,1^2v4[8:1]*-4[8:1],1b,1^8v5[8:1]*s5[8:1],1b,
1^3[4:1],3^5[4:1],5^7[4:1],7>2[16:5],2>5[4:1],5<8[4:1],8>4[16:5],4<4<8[1:1],,,,,,
{8}5,5,4,6,5,7,6,8,1
bh[4:1],,6,6,4,4,2,2,1b,1,3,3,5,5,7,7,
8b,8,8,6b,6,6,5b,5,5,4b,4,4,3bh[1280:1],3,2h,2,
1b,4,3,4,8,6,4,4,8b,5,6,5,1,3,5,5,
Cf,6,4,Cf,2,8,Cf,7,
1b/A6/D7f/A7,1bx/B7f/B6f/E6/E8,1b/B1/B8/B4/B5/Cf,1bx/E2/B2f/B3f/E4,{4}1b/A3/D3f/A2,
6-2[8:1],
6b/3v8[8:1],7-4[8:1],1-5[8:1],6-2[8:1],4-8[8:1],7-3[8:1],2-7[8:1],6-2[8:1],1-5[8:1],
5^4z8[6:1]*v8[6:1],5b,5v3^2[6:1]*-2[6:1],5b,5^4v1[6:1]*s1[6:1],5b,5-7[4:1]b,
5-2[4:1],5-1[4:1]b,5-3[4:1],5-8[4:1]b,5-2[4:1],5-7[4:1]b,5-1[4:1],5>5>1[1:1]*>5[8:5]b*>1[8:3],,,,,
{8}4,4,5,3,4,2,3,1,8
bh[4:1],,3,3,5,5,7,7,8b,8,6,6,4,4,2,2,
1b,1,1,3b,3,3,4b,4,4,5b,5,5,6bh[1280:1],6,7h[8:1],,
{12}8bx/C,1,2,3/4x,5,6,1b,8,7,6,5,4,1bx/C,8,7,6/5x,4,3,8b,1,2,3,4,5,
{64}1b,2,3,,,,,,{8}5,5,{64}1b,2,3,,,,,,{8}5,5,{12}1x,2x,3x,
{16}4b,3,2,1,8,7,6,5,4bx/8b,7,6,5,4,3,2,1,
{4}8b/Chf[1280:1],,,,,,,,
{8}45,,5,,5/B2,B3,5,E3,5,C,5,E7,5,,5,,
45,,4,,4/B7,B6,4,E7,4,C,4,E3,4,,4,,
4/5b,,5,,5/B2,B3,5,2x`E3,5,C,5,E7,5,,5,,
4x,4,5x,5,3x,3,6x,6,2x,2,7x,7,1x,1,8x,8,
{16}1x,,1,2x,8x,,8,7x,2x,,2,3x,7x,,7,6x,3x,,3,4x,6x,,6,5x,3x,,3,4x,7x,,7,6x,
{8}3x`E3,5x`E5,3x`E3,5x`E5,2x`E2,6x`E6,2x`E2,6x`E6,
1x`E1,7x`E7,1x`E1,7x`E7,8xh[32:1]`B8,8xh[32:1]`B8,8xh[32:1]`B8,8xh[32:1]`B8,
{4}8xh[1280:1]/Chf[1:1],,8,8,
B1/B2/B3/B4/B5/B6/B7/B8/E1/E3/E5/E6/E7/A1/A2/A3/A4/A5/A6/A7/A8/D2/D4/D6/D8,,2,3,
{2}4xh[2:1]/6hb[2:1],,5xh[2:1]/3hb[2:1],,
{4}5xh[4:1]/3hb[4:1],,5xh[4:1]/7hb[4:1],,
{24}5bh[2:1]/1b,2,3,4,,6,7,8,1,2,3,4h[24:13],,6,7,8,1,2,3,,5,6,7,8,
{2}1bh[2:1],,2xh[2:1]/8hb[2:1],,
{4}2xh[4:1]/8hb[4:1],,2xh[4:1]/4hb[4:1],,
{24}4bh[2:1]/1b,2,3,,5,6,7,8,1,2,3,,5h[2:1],6,7,8,1,2,3,4,,6,7,8,
{4}1bh[1:1],,3,5,7bh[4:5],,6,1,
3bh[4:1],,4xh[4:1]/6xh[4:1],,5v4[145#8:1]*v6[145#8:1],,5b,,
{16}
3b,E4`B4,7,E7`B6,3,E4`B4,7,E7`B6,2,E3`B3,8,E8`B7,2,E3`B3,8,E8`B7,
2b,E3`B3,6,E6`B5,2,E3`B3,6,E6`B5,1,E2`B2,7,E7`B6,1,E2`B2,7,E7`B6,
{2}8h[4:1],(145){4}1^2[16:1]*^3[16:1]b*^4[16:1]/7^6[16:1]b*^5[16:1]*^4[16:1]b,
{1}1b<1<4[2:5]*<1<4[2:5]`7bx>7>4[2:5],,,
(290){4}1b,1b/Chf[1280:1],
E
