&title=Mind Enhancement
&artist=PIKASONIC
&first=-0.68
&lv_4=12+
&des_4=OrAngel
&inote_4=
(180){4},,,,{2}3h[4:1],
6h[4:1],
{4}4/3h[8:3],{8}4,5h[4:1],,4,{4}3,
{2}6h[4:1],{4}2,3,
5/6h[8:3],{8}5,4h[4:1],,5,{4}6,
3h[2:1],4,6h[2:1],5,
{2}3>8[4:1],5pp7[4:1],
{8}3,6/3,{4},{8}1/8x,8x<1[8:7]/1>8[8:7],{4},,,,,B2,
B3,B4,B5,
E7,E8,E1,E2,
3h[1:1],4,4,4,
6h[4:3],5,5,5,
D7/B7,E1/A8,B2/A2,B3/A3,
E5/E6,E7/C,D8/B1,B7/A1,
{8}8x/7x,8x/6x,{4},{8}1x/2x,1x/3x,,Cfh[8:9],
{4},,,3-1[8:1],
,1-7[8:1],6,6-4[8:1],
2-5[8:1],8-4[8:1],{8}1,1,{4}6,
1/8-6[8:1],5,5/4-2[8:1],8-5[8:1],
2-6[8:1],7>2[8:1],4,{8}3,3,
{2}3/4-7[8:1],6/5-2[8:1],
{4}8/1-6[8:1],7,1/8-3[8:1],2,
{8}1,1,7,7,4,4,6,6,
{4}3-1[8:1],4-8[8:1],{2}1w5[4:1],
{4},{8}3,3,{4}3h[4:1],{8}5,5,
{4}5h[4:1],{8}7,7,{2}7>4[4:1],
{4}6h[4:1],{8}8,8,{4}8h[4:1],{8}7,7,
8x/1x,1x/8x,{4}2b/7b,{2}5v3[8:1]/4v6[8:1],
{8}2x,2,1/7,6,{4}5<8[8:1],4,
{8}7x,7,8/2,3,{4}4>1[8:1],5,
7h[4:1],{8}8xh[16:1],8xh[16:1],{4}6h[4:1],{8}8xh[16:1],8xh[16:1],
{16}1x,2x,3x,4x,5x,6x,7x,8x,1x,2x,3x,4x,5x,6x,7x,8x,
{4}1xh[1:1],C,C,C,
C,C,C,C,
2h[1:1]/C,C,C,C,
C,C,C,C,
C/B3,C/B4,C/B5,C/B6,
C/B7,C/B8,C/B1,C/B2,
{16}3x,4,3,4,3,4,3,4,{2}3>3-1-7-5-3p3b[8:9],
{1},{4}5x,
{8}3,6h[8:3],{4},{8}4,5h[4:1],
,3,2,8h[4:1],,4,5/7,6,
{4}7h[4:1],{8}5,4h[4:1],,5,7/8,6h[4:1],
,2,3,4h[8:3],,6,{4}8b,
7/5,{8}6,3h[8:3],{4},{8}5,4h[4:1],
,6,7,1h[4:1],,5,4/2,3,
{4}2h[4:1],{8}4,5h[4:1],,4,2/1,3h[4:1],
,7,6,5h[8:3],,3,{4}1b,
6x/8x,{8}7,2h[8:3],{4},{8}8,3h[4:1],
,7,6/5,7h[4:1],,8,1,2,
{4}1h[4:1],{8}8,8h[4:1],,2,3/5,2h[4:1],
,{16}A6,E7,{8}E8,8xh[8:3],,1,{4}3b,
3x/1x,{8}2,7h[8:3],{4},{8}1,6h[4:1],
,2,3/4,2h[4:1],,8,7/1,6,
{4}1h[4:1],{8}E8,E7,,5/3,3/5,2h[8:7]/4<4<5[8:7],
{1},,,,,,,,,{4}E2/C,
E3,E4,E5,
E6,E7,E8,E1,
B2/A2,B3/A3,B4/A4,B5/A5,
B6/A6,B7/A7,B8/A8,B1/A1,
2x,2x,3x,3x,
4x,4x,5x,5x,
{8}6x,6x,7x,7x,8x,8x,1x,1x,
{1}2b-5-8-2[4:3],
Cf,
,{8}3bx/4bx,
2,5/6,7,4/3,1,5/6,8,
3/4,2,3/4,1,8x/7x,6,1x/2x,3,
5-1[8:1],4,3,2,8-4[8:1],1,2,3,
5x/3x,2,7/1,6,5/4,3,4/5,6,
{4}7b-4[8:1],8b-3[8:1],{8}7,7,6,5,
4/3,2,1b/8b,7<4[8:1],8,1,2,3,
6bx/5bx,7,4/3,2,5/6,8,4/3,1,
6/5,7,6/5,8,1x/2x,3,8x/7x,6,
4-8[8:1],5,6,7,1-5[8:1],8,7,6,
4x/6x,7,2/8,3,4/5,6,5/4,3,
1x/2x,3,2/1,8,5x/7x,6,3/4,2,
{4}5-7[8:1],1-5[8:1],8-4[8:1],3>8[4:1],
{8}5,5,6,6,7,7,8,8,
{16}2x,1x,2x,1x,3x,8x,3x,8x,4x,7x,4x,7x,5x,6x,5x,6x,
{1}Cf,
{2},{8}4/6h[8:35],{4},{8}1q5>3[8:7],
{2},,,{8}2,
{4},{8}3>1-4<5[8:7],
{2},,,{8}4,
{4},{8}7>4[8:7],
{4},E7,E7,E7,
E7,7/5,2/4,5/7-1[1:1],
3,3,3,3,
3,3,1/3,{8}3,8-6-1-5[8:7],
{4}3,3,3,3,
3,3,7/3,{8}3,6,
{4}3,{8}3,5<8-5[8:7],{4}3,3,
3,3,3,3,
{8}4,4,5,5,3,3,6,6,
2,7,1,8,{16}2b,7,2,7,1b,8,1,8-4[16:29],
{1},,Ch[8:1],
E
&lv_5=14
&des_5=OrAngel
&inote_5=
(180){4},,,,{2}B3,
B7,
{4}B2,{8}B5,B6,,E8,E1,E2,
{2}E7/B6,{4}A1/B1/E2,A2,
E7/A3,{8}E8/B8,B3/B4,,B6,B7,B8,
{2}8x/2xh[4:1],1/7h[4:1],
{4}3/1qq5[2:1],{8}2,2,,3,3,4,
5/6h[4:1],4,{4}3,{8}1x/2x,1x/8x,8x/7x,2>4-1[2:1]/6<8-5[2:1],
{4},,,{8}6,7,
{4}8-4[8:1],1-3[8:1],8-4[8:1],1-3[8:1],
{8}8-4[8:1],8,1-3[8:1],1,{4}8-4[8:1],1>5[4:1],
5<1[4:1],1-3-5[4:1],5v8[4:1],8>6[4:3],
B5,B7,B1,{8}8,7,
{4}6-8[8:1],{8}5-1[8:1],5,6-8[8:1],5,4-8[8:1],4,
5-1[8:1],5,4-2[8:1],4,{4}5-1[8:1],3/5,
{16}2x,8,2x,8,1,7,1,7,8x,6,8x,6,7,6,{8}1/5x-1[8:1],
,5bx/7x-4-8[4:1],8,7b,{24}A3f,E3,E2,A1,{12},{8}7x/2x,3,
6b/4b,7,5/3,2,6/5,8,3/4-8[8:1],1,
4b/2-6[8:1],1,2b/7,8,1/5,8,7/3,6,
3b/5b,1,6/4,8,2/4,1,5/7-4[8:1],8,
7b/1-5[8:1],8,5/1b,6,7/8,1,2/3,1,
3x/2x-7[8:1],4x/5x-8[8:1],{4},{8}2-4[8:1],1-5[8:1],2,1,
3h[8:1],4,5,8/6,6x/5x,4,3/4,5,
6/4-2[8:1],5,4/6-8[8:1],5,6/1-5[8:1],2,1/4-2[8:1],3,
4/6,5,4,3,{4}1<5[4:1],{16}E5,E4,E3,E2,
{8}8xh[4:1],4,4,1h[4:1],5,5,6/2,3,
7/4,{16}6,5,{8}7,4/3,{16}2x,1,8,7,6x,7,8,1,
{8}2/4-7[8:1],4,2-5[8:1],2,4-7[8:1],4,8,8,
{16}1,8,1,8,{8}2b,4b/3b,5b/7b,6,4/2,3,
7-5[8:1],{16}8,8,{8}7/1,8,1x,7,3,5,
2-4[8:1],{16}1,1,{8}2/8,1,8x,6,{16}2,3,4,5,
{8}8x,6,{16}1,2,3,4,{8}5/8x,6,{16}1,2,3,4,
5/8bx,6,7,8,1/6bx,2,3,4,5/8b,6,7,8,1/6b,2,3,4,
{4}5/A8f,D1,A1,D2,
A2,D3,A3,D4,
4xh[2:1]/D5,A5,D6,{8}3/A6,2,
D7,3,A7,2/A7,D8,D8,A8,A8,
1x,1x,2x,2x,3x,3x,4x,4x,
5x,6x,7x,8x,1x,2x,3x,4x,
{16}5x,6x,7x,8x,1x,2x,3x,4x,{32}5x,6x,7x,8x,1x,2x,3x,4x,5x,6x,7x,8x,1x,2x,3x,4x,
{1}Ch[1:1]/5bx>5b[2:1],
{4}5x,{8}5,6/4h[8:3],{4},{8}5,5/3h[4:1],
,6,5/2,4h[4:1],,3,2/4,3,
{4}3/1h[4:1],{8}2,2/8h[4:1],,1,2/7,3/6,
5,2/4,1,7/8h[4:1],,6,{4}7/1-5[8:1],
1b/3,{8}4,3/5h[8:3],{4},{8}4,4/6h[4:1],
,3,4/7,5h[4:1],,6,7/5,6,
{4}6/8h[4:1],{8}7,7/1h[4:1],,8,7/2,6/3,
4,7/5,8,2/1h[4:1],,3,{4}2/8-4[8:1],
{8}8b/6,6,5,4h[8:3]/A6,{4},{8}5,3h[4:1]/B4,
,6,5/B2,4h[4:1],,3,{4}4/B1,
{8}2/1h[8:1],2,3,8h[4:1]/D2,,1,2/7,3/6,
5,{16}3,6,{8}1,7/8h[4:1],,B6,{4}7/1-5[8:1],
{8}1b/3,3,4,5h[8:3]/B3,{4},{8}4,6h[4:1]/B5,
,4,7/B4,5h[4:1],,6,5/B6,7,
{16}8x,7,8,7,8,7,8,7,8,7,1,6,2,5,3,4h[16:17],
,,,A3,{8}E3,B2,{16}A2,{8},{16}D2,{4},{1}A1,
B6/E7,
E3/D3,
{2}E8/A7,A1/D2,
{1}B6/A6/E7,
A3/E3/D3,
{2}B7/E7/A7,E1/B8,
{1}A2/B2/E3/Ch[1:1],
{4}3bx,{8}3/5,5,3,7,3,6,
3,5,{4}3<7[4:1],3,{8}3,{16}5,5,
{4}3,{8}3/5,6,3,5,3,4,
3,5,3/5<8[8:1],3,3/5,3,3,{16}8,8,
{8}2x/7x,2,2,2,6x/3x,6,6,6,
4x/5x,4,4,4,6x/3x,3,7x/2x,7,
{16}1,8,1,8,1>1-3<4-6<7-1>2-4<5-7>8-2-5<6-1-4[8:11],8,1,8,{2}1,
{1},Cf/5b-2<7-3b[2:3],
,{8}5b/4b,
2,4/5,7,3/4,1,5/6,8,
5/3,1,4/6,{16}8,8,{8}2/4,1,5/7,8,
3/2,1,6/7,{16}8,8,{8}4/3,8,5/6,1,
3/4,6,7/8,1,2/4,3,4/6,7,
8b/1-4[8:1],3,1b/8-5[8:1],6,8b/2,3,4>1[8:1],5,
4b/7<4[8:1],8,7b/8,2,3,3/4,5/4,5/6,
7b/5b,8,4/2,1,5/6,8,4/3,1,
5/4,8,5/4,1,6/4,8,5/3,1,
2/7-5[8:1],8,7/2-5[8:1],1,2/8v3[8:1],1,8/2v5[8:1],1,
2/4-7[8:1],4,4/3-1[8:1],{16}3,3,{8}4,5,6,7,
2/8-4[8:1],{16}1,1,{8}8/2-5[8:1],3,2/6v1[8:1],7,6/4-8[8:1],3,
4/5V71b[4:1],6,5/2,3,4,3/8,7b,6,
{16}1/5b,2,3,4,5/1b,6,7,8,1b/5,4,3,2,1/5b,8,7,6,
3x/5bx,4,1,7,3x,5,1,7,3x,4,1,7,3x,5,1,7,
{1}4b/Cf,
{2},{4}3/5h[4:1],{8}3,4/6h[8:9],
{4}4,4,4,4,
4,4,5/7h[4:1],{8}5,6/7h[8:11],
{4}5,5,5,5,
5,5,4/6h[4:1],{8}4,4/5h[8:1],
{4}4,4/A5,4/A5,4/A5,
4/5,6,3,6,
{8}4/2,3,7/5,6,2/4,3,7/5,6,
2/5,3,7/4,5,4/1b,3,8/5,6b,
2/4,3,7/5,6,2/4,3,7/5,6,
2/5,3,7/4,6,4/1b,3,8/5,6b,
3/4,5,3b,4b,3,4,3,4,
2,5,2,5,3,4,2,5,
{16}1,6,1,6,1,6,1,6,8,7,8,7,8,7,8,7,
{32}1x,2,3,4,5,6,7,8,1,2,3,4,5,6,7,8,5x/1,4,3,2,1,8,7,6,5,4,3,2,1,8,7,6,
{1}5bx/1bw5[8:13],
,1xh[8:1],
E
