&title=アスタロア
&artist=鈴木 このみ
&first=0.159
&des=因幡 めぐる
&lv_6=13.1
&des_6=因幡 めぐる
&inote_6=
(95){4},{8},8x-4[8:5],,,,,,,,1xpp4[8:5],
,,,,,,,7xs3[8:3],
,,,,,1xs5[8:3],
{16},,,,,,,,,,,,,,,,E1,
E2,E3,4x>8[16:9],,,,6h[16:9],,,,,,,,,,,,,{2}7-2[4:3],
{8}3-6[4:1],,,,,7qq8[2:1],{16},,,,,,,3h[8:3],
,,,,,,,,,,{8}6,
{24},,{12}5,{24},,,4w8[24:17],{1},{16},{24},(118){16}6b/2b,
,,{8}3/5,{16},4h[4:1]/6<1[8:1],,,,,,,2,
3,4,4h[16:3],,,{8}5b,{16},7b-4[8:1]/2b-5[8:1],,,,,,,,1,
2,3-6[8:1],,,{8}7-2[8:1],{16},,,,,,,1,
,2h[8:1],,6,,,{8}7b>2[8:1]/3b<6[8:1],{16},,,,,,1x,
5x,8,4,7,2/6,,,{8}3b/7bh[16:3],{16},1,,,1h[16:5],
{32}E8,B7,B6,E6,{16}5xh[8:1],,,,6b/8b,,,{8}2b/4b,{16},7b-2[8:1]/3b-6[8:1],,,,,,,,8,
8,1b<6[8:1],,2,,3h[8:1],,,,1b<5[8:1],
,2,,4b-1b[8:1],,,,4b/5xh[4:3],,,,2h[8:1],,,,3h[8:1],
,,,,,4/6,7/3,8b/2bh[1:1],,,,B8,,E3,,E7,
,B4,,E6,,,,5b,,,,8qq5[4:3],,,,,,,,E2,
,E3,,E4,,,,4-1[4:1],,,,,,,,,,,,8w4[2:1],
,,,,,,,,,,,,,2,
,2,,,{8}3,{16},4-1[16:7],,,,,,,,,,,,,,8p6[8:3],
,,,,,,,,,4h[2:1],
,7,,,{8}6,{16},5h[4:1],,,,,,5-8[8:1],
,6/4,,5/3h[4:1],,,,,,,,5/4,
,,{8}6/3,{16},2/7h[2:1],,E1,,E2,,E3,,E4,,7b,
,,{8}2b/1b,{16},5bh[8:3]/Cf,,,,,,4qq1[1:1],,,,8h[8:1],
,,,7h[8:1],,,,6,,6h[8:1],,,,5,,5h[8:1],
,,,8V24[4:1],,,,,,,,6,,5qq2[8:7],,4,
,,,1h[8:1],,,,8h[8:1],,,,7,,7h[8:1],,,,6/1,
,6h[8:1]/1h[8:1],,,,8/7,,,{8}6/1,{16},2/5h[4:1],,,,E2,
,,E8,,,Ch[4:1],,,,1-4[8:1],,,,8,
,7h[8:1],,5-2[8:1],,7,,6,,,,5-8[8:1],,1,,2h[8:7],
,,,7,,7,,8x,,,{8}7x,{16},6bx,,4,
5,4,,3/6>1[8:3],,6/3,,6h[4:1],,,,,,,,8h/E4,
,,{8}2h/E7,{16},E2/6pp5[3:1],,E4,,,{8}E3,{16},E2,,1s5[4:1],
,,,7h[8:1],,,,6<1[8:1],,,,,,2h[4:1],,,,3h[4:1],
,,,4w8[8:1],,,,,,,,6/2,,,,8,
,1-6[8:1],,2,,1/3qq4[4:1],,,,,,,,,,5,
,5h[8:1],,,,5/3h[4:1],,,,,,4/6h[4:1],,,,1>4[8:1],
,,,,,6h[4:1],,,,,,7/E2,7/E3,E4/7-4[8:1],
,8,,1,,2pp1[4:1],,,,8h[8:1],,,,7,,6-3b[16:1]/3<6b[16:1],
,,,6/3,,,,1b/8h[8:1],,,{8}7b/2h[8:1],{16},8bz4z8[1:1],,3h[4:1],
,,,,,,,5bs1b[8:3],,,,,,,,,,,,8bxV64[4:1],
,7,,4-8[16:3],,3,,1,,2,{8}2h[16:3],
{16},,,5-1[8:1],,6,,4-2[8:1],,3,,6,,7-2[8:1],{8}7,
{16},,,4,,3b,{8}3>7[16:5],{16},,,7<3[4:1],,,,3-5-7b[4:1],
,,,7>3[4:1],,,,3s7[16:3],,,,5,,6,{8}6b,
{16},8xh,,8<5[4:1],,,,1,,2,,3,,4-1[8:1],{8}4,
{16},,,8p4[8:1],,1,,8/2-6[8:1],,3,,2/8,{32},,7,B7,Cf,B3,{16}3xh[4:1],
,,,,,1,8,7x-2[16:1]/2x-7[16:1],,6x-3[16:1]/3x-6[16:1],,,,,,,,5bh[16:1]/4bh[16:1],
,7/2,7/2,{48},,,,,,8x/1xh[16:1],7x,6x,{8}5x,{48}1x/8xh[16:1],2x,3x,4x,,,,,,4x/8x,3x/7x,2x/6x,{8}1x/5xpp5[4:1]*qq5[4:1],
{16},,,,,,,Cf/E7/E3,,6x<1b[8:1]/2xpp5[8:3],,,,6b/2,,,,,,1h[8:1],
{32},,,8,7,6,{16}5/Ch[8:1],,,{8}2/Ch[8:1],{16},Cfh[8:1]/8p5[16:3]*q3[16:3],,,,,,,,6,
7,8h[16:3],,,{8}1h[16:3],{16},7h[16:3],{32},,,,,,2/8,
E8,E7,E6,{16}3h[8:1]/E5,,,,1h[8:1]/C,,,{8}6h[8:1]/C,{16},Cf/4>1[32:3],,8,
7,6,5,{32}8x/4,7,6,5,4,3,2,1,{16}8h[8:3],,,{8}5h[8:3],{32},,E1,E2,E3,E4,,,,,3,
2,{16}1,{32}7,6,{16}5h[16:3],,,2h[48:17],{48},,,,,6h[16:3],,,,,,,,,E2/E6,B1/B5,B8/B4,E8/E4,{8}7x-2[8:1]/3x-6[8:1],
{16},,,,,,,1x-4[8:1],,,,1/7h[8:1],,,,6-2[8:1],
,5,,6/4q5V71-3<2b[16:21],,,,4bxh[16:17],{1},{4},5bx-8b[1:1],
,,,,{1}1xs5[8:1],
E
