&title=声のカケラ
&artist=N1LL/yunomafuyu/Xuan K17/なこたんまる
&first=0.02
&des=''♡24_14♡''
&lv_1=
&des_1=''♡24_14♡''
&inote_1=
&lv_2=
&des_2=''♡24_14♡''
&inote_2=
&lv_3=
&des_3=''♡24_14♡''
&inote_3=
&lv_4=
&des_4=''♡24_14♡''
&inote_4=
&lv_5=13+
&des_5=''♡24_14♡''
&inote_5=(128)
{4},,,,
4/5<4[4:6],,E5,,C,,,5,
5<4[4:6],,E5,,C,,,5,
7h[4:1],B3,2h[4:1],B6,
7-4-6[4:2],B1,C,B5,
4h[4:1],E7,5h[4:1],E3,4qq4[8:4]*pp4[8:4],,,,
{16}
3h[4:6]/5pp4[8:4],,,,,,,,,,,,,,,,
E5,,,,E6,,,,E7,,,,E8,,,,
8h[4:6]/2pp1[4:2],,,,,,,,,,,,,,,,
1,,,,2,,,,2-4[8:1]*-8[8:1],,,,,,,,
3h[4:1]/7p6[4:2],,,,,,,,3h[4:1],,,,,,,,
5h[8:1],,,4-2[8:1],,,7,,6h[4:1],,,,
2,,3,,5h[4:1]/4-2-8-6-4[8:5],,,,,,,,5h[4:1],,,,,,,,
7h[8:1],,5,6v4[16:3],,,4,,3,,,,
5-8[8:1],,,,5b/3bh[4:1],,,,
{24}
7h[8:1],,,5h[8:1],,,6h[8:1],,,,,
6h[8:1],,,5,6,,4,
5h[4:1],,,,,,3h[8:1],,,4h[8:1],,,3h[8:1],,,,,
3h[8:1],,,4,3,,5,
4h[4:1],,,,,,7h[8:1],,,5h[8:1],,,6h[8:1],,,,,
6h[8:1],,,4,6,,5,
7h[4:1],,,,,,4h[8:1],,,5h[8:1],,,3<5[8:1],,,,,,
8,,,7,,,
{8}
C/6b,6,6/A5,6,A2/6,6,6/A4,6,3/A7,3,3/A5,3,3/A8,3,3-8[8:1]/D5,3,
7-4[8:1],7,1,1,
{16}
2,4,3,5,4,6,5,7h[16:13],C,,,,C,,,,C,,,,
1b,,,,
{24}
2h[8:1]/8h[8:1],,,,,3,4,,4,3,,,2h[8:1]/8h[8:1],,,,,3,4>2[8:1],,4,3,,,
5<7[8:1],,,6,,,1-5[8:1],,,2,,,1/8-4[8:1],,,,,,18,,,,,,
2h[8:1]/5h[8:1],,,,,3,4<7[8:1],,4,3,,,
2v5[8:1],,,1,,,8,,,7,,,6h[8:1]/4,,,3h[12:1],,4,2>7[4:1],,,18,,,
27,,,,,,8-5[12:1]*-3[12:1],,,,,,
8b,,,,,6,4,,7,5,,,4h[8:1]/8h[8:1],,,,,6,4>1[8:1],,7,5,,,
8<5[8:1],,,7,,,1pp8[16:4],,,2,,,16,,,,,,7p3[8:1],,,,,,
7b/1,,,,,2,1-5[8:1],,3,8,,,7-4[8:1],,,6,,,4,,,3,,,
{32}
B4/2xh[8:1],C,B8,,,,,,E5/3xh[8:1],E6,E7,,,,,,B4/2xh[8:1],C,B8,,,,,,
{24}
8-4[8:1],,,,,,8b<5[8:1]*>3[8:1]/1b,,,,,,8b,,,,,,
2h[8:1]/6,,,7,,4,5-1[8:1],,3,6,,,2>5[8:1]/5,,,3,,8,2-6[16:2],,,
7,,,5-8[16:2],,,4,,,3,,,4,,,
8bh[8:1]/3,,,2,,6,3<6[8:1],,5,4,,,7v4[8:1]/3,,,8,,,73,,,2,,,
1>4[8:1]/5,,,78,,6,1pp5[4:1],,,8,,,17,,,,,,
6-1[8:1],,6,4,,4,6b,,,3h[12:1],,8,2-5[8:1],,4,3,,,8/2b,,,
6h[12:1],,1,7<4[8:1],,5,6,,,1-5[8:1]/7,,,2,,,1/8qq1[16:5],,,7,,,
48,,,,,,2>5[8:1]*q6[8:1],,,,,,2b,,,,,3,8>3[8:1],,5,6,,,
7<4[8:1],,,6,,,3,,,2,,,
{32}
B3/1xh[8:1],C,B7,,,,,,B1/8x<5[8:1]*>3[8:1],C,B5,,,,,,8x,,,,,,,,
{8}
4-8[8:1],,4b/3b,,
{24}
1b/7b,,,
6,,,5/7h[8:1],,,3h[12:1],,4,2,,,
15,,,5/1h[8:1],,,6h[12:1],,5,7,,,
84,,,5/7h[8:1],,,3h[12:1],,4,2,,,
35,,,6/4h[8:1],,,7h[12:1],,5,6,,,
47,,,5/6h[8:1],,,4h[12:1],,5,3,,,
24,,,5/3h[8:1],,,7h[12:1],,5,6pp5[4:1],,,18,,,62,,,,,,
3-1[8:1],,,2,,,43,,,7h[12:1],,8,6,,,
15,,,2/4h[8:1],,,3h[12:1],,5,4,,,
57,,,4/6h[8:1],,,3h[12:1],,4,2,,,
18,,,7/2h[8:1],,,6h[12:1],,4,5<8[8:1],,,6,,,
4>1[8:1],,,3,,,5pp4[4:1],,,6,,,2h[8:1],,,,,,
3,,,2,,,
{32}
5xh[8:1]/A3,A2,A1,,,,,,4xh[8:1]/A6,A7,A8,,,,,,5xh[8:1]/A3,A2,A1,,,,,,
{4}
5<4[4:7],,,,,,,,5,5<4[4:6],,,,,,,5,
6-4[8:1],B3,2-4[8:1],B1,8-2[8:1],B7,6-8[8:1],B5,
4<6[8:1],B3,2>4[8:1],B1,8<1[16:7],,,
{32}
8,7,6,5,4,3,2,1,
{16}
8hb[4:1]/4b>1b[8:1],,,,,,,,
8hb[8:1]/1hb[8:1],,,5hb[8:1]/6hb[8:1],,,4b/7pp4b[4:2],,,,,,,,,,,,
3h[8:1],,2h[8:1],,1h[8:1],,8b<5b[8:1],,,,,,,,
3hb[8:1]/4hb[8:1],,,1hb[8:1]/2hb[8:1],,,8b/3bpp1b[4:2],,,,,,,,,,,,
8h[8:1],,7h[8:1],,6h[8:1],,5b-1b[8:1],,,,,,,,
2hb[8:1]/8hb[8:1],,,4hb[8:1]/6hb[8:1],,,3b-5v8b[8:3]/7b-5v2b[8:3],,,,,,,,,,,,
8h[8:1],,1h[8:1],,2h[8:1],,3bv8b[8:1],,,,,,,,
7hb[8:1]/1hb[8:1],,,5hb[8:1]/3hb[8:1],,,2bh[8:1]/6bh[8:1],,,,
3b/7b,,5b<8b[8:1]/1b>4b[8:1],,,,
{128}
5b/1b,D2f,D6f,,,,,,
{16},,,,,,,
{24}
5h[8:1],,,4,,5h[8:1],,,2,4,,3,5h[8:1],,,4,,5h[8:1],,,2,4,,3,5h[8:1],,,
B2,,,3h[8:1],,,E8,,,5h[8:1],,,4,,5h[8:1],,,4,5,,5,
4h[8:1],,,5,,3h[8:1],,,7,5,,6,4h[8:1],,,5,,5,4,,4,5h[8:1],,,
3h[8:1],,,6,,5,7h[8:1],,,3,,4,2h[8:1],,,8,,,
{16}
17,,56,,8-6[8:1]/4,,4,,3/A8,,2,,5/1-3[8:1],,5,,6/A1,,7,,
8-6[8:1]/4,,4,,8-2[8:1]/4,,4,,8-4[8:1]/4,,4,,3,,2,,
15,,26,,37,,48,,5,7,4,6,3pp4-1-3[8:6],5,2,4,,,,,,,,,,,,,
{4}
8w4[12:1],
{64}
8bV64V28b[4:2],Cf,,,,,,,,,,,,,,,
{4},,,
{32}
7b,6,5,,
{24}
1h[12:1],,8,
{32}
2bv5[8:1],3,4,,
{24}
7,,,2/6-1[8:1],,,7,,4,6>3b[8:1],,,2,,,1/6b,,,2h[12:1],,8,1v3[8:1],,6,5,,,
8V64[8:1]/1,,,7,,4,8,,,3,,,1/2-5[8:1],,,34,,8,2V86-4b[16:3],,,6,,,2/7h[8:1],,,,,,
8-4[8:1],,8,4,,4,8b,,,3h[12:1],,5,1-5[8:1],,7,3,,,1b/8,,,6h[12:1],,4,8<5[8:1],,2,6,,,
1>4[8:1]/8,,,2,,,1/8qq1[4:1],,,7,,,83,,,4,,,2>5b[8:1],,,3,,1,2b,,,6h[12:1],,8,7-3[8:1],,5,6,,,
7/1-5[8:1],,,2,,8,1,,,6,,,
{32}
7xh[8:1]/A5,B5,C,,,,,,3xh[8:1]/B5,C,B1,,,,,,7xh[8:1]/C,B1,A1,,,,,,
{24}
8<5b[8:1]/2>5b[8:1],,,,,,8b/2b,,,,,1,8-4b[12:1],,5,6,,1,{64}8b,Cf,,,,,,,
{24}
2h[12:1],,4,3-5[12:1],,1,8,,6,3,,,7,,7,5,,5,4,,4,2-6[8:1],,,18,,,2/7V53b[8:1],,,8,,4,7b,,,
2h[12:1],,8,1-5[8:1],,6,5-3[8:1],,,18,,,7,,,6,,6,4,,4,1>4[8:1],,,3/8<5[8:1],,,1-5[8:1]/6,,,8,,,1,,,8,,,
6-2b[8:1]/2,,5,4,,4,6b,,,3h[12:1],,8,1-4b[8:1],,6,5,,,1b/7,,,8h[12:1],,5,6,,3,4,,,1bx/8bx,,,6bx/7bx,,,4bx/5bx,,,2bx/3bx,,,
{32}
1b/8b,7,6,5,4,3,2,1,8b<5b[8:1]/4b>1b[8:1],,,,,,,,
{24}
8b/4b,,,,,6,8-4[8:1],,7,5,,,84,,,3,,,5/3>2v8<7[4:2],,,,,,
{32}
A5,A6,A7,,,,,,A5,A4,A3,,,,,,B5,C,B1,,,,,,
{4}
1-5b[12:1],
{64}
1b/5b<4[4:8],Cf,,,,,,,,
E
&lv_6=
&des_6=''♡24_14♡''
&inote_6=
&lv_7=
&des_7=''♡24_14♡''
&inote_7=
