&title=Brionac ~Lugh Lamhfhata~
&artist=Project Grimoire
&first=0.85
&lv_5=14
&des_5=Statue
&inote_5=
(160){8}5,4,{24}7,6,{6}5h[12:5],2>4[8:1],{12},{4}2,
6>4[8:1],6,3,3/5h[4:1],
3h[4:1],6h[4:1],{2}4,
{4}3h[4:1],5h[4:1],2h[4:1],5,
3/4,4/5,6h[2:1],5>3[8:1],
5,6,4/5,3h[4:1],
5,{24}2,3,{6}4h[12:5],5,{12},{4}6,
{24}7,6,{12}5h[12:5],,{4}4,3,3/4,
4/5,5/6,{2}6h[2:1],
{4}5,3/5,6/4,7/2,
{24}2,3,{12}4h[6:1],,{4}6>4[8:1],6,3h[4:1],
4h[4:1],2>4[8:1],{2}2,
{8}4/5h[#0.375],3,(175){4}2>4[8:1],,5h[4:1],
{2}3,{4}3h[4:1],4,
,{8}3,5,{2}4h[2:1],
{4}5h[4:1],2>5[4:1],5<8[4:1],8>3[4:1],
{2}5h[2:1],{4}4,5/4,
3h[4:1],4,5/4,6h[4:1],
{8}4,5,{4}3h[4:3],5,4,
6>3[4:1],3>8[4:1],8<5[4:1],4h[2:1],
,{8}5,3,{2}7h[2:1],
{4}3,{8}3/7,2/6,1>3[12:1]/5<7[12:1],4/8,{4}1/5,
{8}4/8,7/3,6/2,1/5,{4}6h[8:1]/2h[8:1],{16}2,6,3,7,
4,8,{8}5,{4}5/1p6[4:1],{2}3,
{8}3/5,2/6,{4}7/1>3[8:1],8/1-4[8:1],8/1-5[8:1],
7/1>3[8:1],7/1-4[8:1],8/1-5[8:1],8/1>3[8:1],
7h[8:1]/1-4[8:1],{8}7/1-5[8:1],7,{4}6h[4:1]/1>3[8:1],1-4[8:1],
1/8<5[4:1],5>2[4:1],2<7[4:1],7<4[4:1],
{2}3h[4:3],{4}4,5h[4:1],
{8}4,6,{4}2-5[8:1],2/8-6[8:1],8/1,
{8}4/6,3/7,{4}2/8<6[8:1],1/8-5[8:1],1/8-4[8:1],
2h[8:1]/8<6[8:1],2/8-5[8:1],3/8-4[8:1],8/3h[2:1],
,{8}7-3[8:1],3-5-1[24:5],{2}7,
{4}3/8,{8}4/8,3/7,2>4[8:1]/6<8[8:1],1/5,{4}2/6,
{8}5/1,4/8,3/7,2/6,{4}1h[8:1]/5h[8:1],{16}5,1,6,2,
7,3,{8}8,{4}4/8-5[8:1],8/2q5[4:1],2,
,{8}8-4[8:1],1,2,3-7[8:1],2,1,
{4}8<4[4:1],4>8[4:1],8,{8}4<7[8:1],3,
2,1>4[8:1],8,7,{4}6<8[8:1],4/6,
{8}3h[8:1],6h[8:1],{4}4>1[4:1],1-5[4:1],5<8[4:1],
{2}8s4[4:1],5h[4:1],
{8}4,5,3,4,{4}3/4,2/6,
8/1,{8}1-5[8:1],8,7,6-2[8:1],7,8,
{4}1<5[4:1],5>2[16:3],1,{8}8-4[8:1],1,
2,3-7[8:1],2,1,{2}8,
{4}2/7,{8}1>4[16:3],3<6[16:3],5<8[16:3],7,{4}7,
{8}6>4[8:1],4>2[8:1],2<8[8:1],8<6[8:1],5,4,3,4,
5,6,{16}4,5,4,5,4,5,4,5,4,5,4,5,
{8}4h[8:1],5,{4}3<5[8:1]/5<7[8:1],3/5,{8}6h[8:1],5,
{4}2,{8}8/2-6[8:1],1,2/8-4[8:1],1,{4}8/2<7[4:1],
7<4[4:1],4>8[4:1],{2}8<4[16:5],
{4}7h[4:1],{8}2-6[8:1],1,2/8-4[8:1],1,8/2-6[8:1],1,
2/8-4[8:1],1-5[8:1],8-6[8:1],1-3[8:1],8<4[4:1],1,{4}8-3[8:1],
8-5[8:1],8>4[4:1],{2}8b,
{8}5h[4:1],4,{4}2>4[8:1],2,5,
{2}3h[8:3]/7h[8:3],{4}6/2,5/1h[4:1],
{16}8,7,6,5,8,1,2,3,{4}4/8-4[8:1],8>3[8:1],
8<5[8:1],8,{16}8,1,2,3,7,6,5,4,
{4}2-4[8:1],2/7,6h[8:1],{24}4,5,4,5,4,5,
4,5,4,5,4,5,{4}5-7[8:1]/4-2[8:1],5-1[8:1]/4-8[8:1],5/4,
7/2,5/1<5[8:1],{8}1/2,3,{4}4/2,
4/8>4[8:1],{8}8/7,6,{4}5/7,6>3[4:1],
3>8[4:1],8<5[4:1],{2}5-1[8:1],
{4}3/8<6[8:1],1h[4:3]/8-5[8:1],8-4[8:1],8,
,6/1>4[8:1],{8}7/1,6,{4}7/5,
3/7h[1:1],1>3[8:1],1-4[8:1],1-5[8:1],
1,{8}2-7[8:1],7>2[8:1],2>5[8:1],5-2[8:1],6-2[8:1],6,
{4}6<5[4:1],{2},{16}1,2,3,4,
5/1-5[8:1],8,7,6,{4}5/1,6,3/6,
1/5,{8}2/6,2/6,3/7,3/7,8/4,8/4,
1/5,1/5,4/8,4/8,3/7,3/7,{16}4,5,1,7,
3,6,2,8,4,5,{32}1,2,3,4,5,6,7,8,1,2,3,4,5,6,7,8,1,2,3,4,
{8}5b,6,{4}5>8[4:5],,7,
{2}6,{4}7,6,
,{8}5h[4:1],4,{2}2,
{4}2-4[8:1]/6-8[8:1],2-8[8:1]/6-4[8:1],6-1[8:1]/2-5[8:1],6/2,
{2}8h[4:1]/4h[4:1],{4}8<4[4:1]/4>8[4:1],8v2[4:1]/4v6[4:1],
{2},{4}5/3,7/1,
{8}5,5,4/6,6/4,7/3,7/3,8/2,8/2,
1/7,7/1,6/2,6/2,5/3,5/3,{16}2,4,3,7,
5,6,2,4,3,7,5,6,1,3,2,8,6,7,1,3,
2,8,6,7,{8}1-5[8:1],1,2-6[8:1],2,3,3,
8-4[8:1],8,7-3[8:1],7,6,6,{16}4,5,3,6,
2,7,1,8,{24}7/1h[12:1],6,5,4,{12}3,{24}2/8h[12:1],3,4,5,{12}6,8-4[8:1]/1-5[8:1],{24},{8}7/2,
{4}8b/1b,(160),{2},{4}6h[2:1]/4h[2:1],
{2},{4}6h[4:1],
5h[4:1],4h[4:1],{2}3h[2:1],
{1}7p4[1:1],
{8},,,,,3h[8:1],{4},{16}6,
5,4,3,{4},(97),5h[4:1]/3h[4:1],
E
