&title=櫻ノ詩
&artist=はな
&first=0.078
&des=诶呀忘记写touch了随便补一个吧
&lv_5=13+
&des_5=
&inote_5=(180)
{1},
{16}3q5[2:2]/4h[8:6],,,,,,,,,,,,,,,,
{16},,,,6,,,,5,,,,4,,,,
{16}37,,,,,,73,,,,,,6h[4:1]/4h[4:1],,,,
{16},,,,4,,,,35,,,,2/6<4[4:3],,,,
{16}8h[4:3],,,,,,,,,,,,,,,,
{16},,1,,2h[8:4],,7,,6h[8:2],,,,,,,,
{16}3h[8:3]/4,,,,,,8h[8:3],,,,,,5,,,,
{16}7/1x,,2,,6/1x,,2,,5/1x,,2,4,2-6[8:1],4,2,,
{16}8b,,,,3h[4:1]/7,,,,4-8[8:1],,3,,2-5[8:1],,,,
{16}1^6[64:13],,,,6-2[64:13],,,,2^5[64:13],,,,1,,,,
{16}8h[4:1],,6,,5,,1h[4:1],,3,,4,,35,,,,
{16}1^4[8:1],,,,1^6[8:1],,,,1-5[8:1],,,,15,,,,
{16}37,,8h[4:1],,6,,5,,4pp5[32:8],,3,,2,,,,
{16}1,,1h[4:1],,3,,4,,5^2[8:1],,6,,7,,,,
{16}8-4[8:1],,,,81,,2^5[8:1],,,,2/6,,7^5[8:1]*^2[8:1],,,,
{16},,,,84,,,,2,6,2,6,3,5,4,,
{16}7x>4b[16:7]/5xqq4[16:7],,,,,,,,,,,,,,,,
{16}4/6b,,,,6,,5,,6,,,,3/6,,,,
{16}6>3[4:2],,,,6,,,,6,,,,6,,,,
{16}1/5h[4:1],,,,8p2b[32:10],,,,4p6b[32:10],,,,,,,,
{16},,,,24,,,,6h[8:1]/5h[8:1],,,,4x/7x,,,,
{16}16,,,,1,,3,,1,,,,1/5h[4:1],,,,
{16}1-5[4:1],,,,5-2-4[32:13],,,,6,,,,7,,,,
{16}8x,,2,,1,,7x,,3,,1,,6x,,4,,
{16}1^6[32:5],,,,6pp2[64:28],,,,,,,,,,,,
{16}4b,,,,4,,3,,4,,,,4/2,,,,
{16}4>1[4:2],,,,4,,,,4,,,,4,,,,
{16}4/2h[4:1],,,,6v4b[32:7],,,,3>5b[32:11],,,,,,,,
{16},,,,3,,42,,8,,1,,6,,57,,
{16}8/4h[4:1],,,,3,,2<6[32:7],,,,3,,3,,,,
{16}1/5h[4:1],,,,6q4[32:11],,7>3[32:7],,,,,,,,,,
{16}5/7b,,6,,1,,2b/4,,3,,8,,1b-6[8:1]/7b-2[8:1],,,,
{16}1^4b[8:1]/7^4b[8:1],,,,,,,,2x/6x,,,,3,7,3,7,
{16}2b,,4<7[32:4],,3,,2b,,,,,,2b,,4q8[32:4],,
{16}3,,2b,,,,3,,2q6[8:1]/4-6[8:1],,,,,,,,
{16}7/8-4[8:1],,,,1,,2^7[8:1],,,,6<3[4:1],,,,4h[8:3],,
{16},,,,5,,,,2,,6,,48,,,,
{16}3/5h[4:1],,,,8,,8,,4^7[8:1],,2,,3,,,,
{16}5,,4,,3,,6,,4,,2,,7<3[32:5],,4,,
{16}1b,,,,2q7[32:5],,,,1b,,,,8^5[8:1],,,,
{16}8/2b^4[8:1],,,,2/4,,,,5/6b,,7,3,7,3,7,3,
{16}8b,,5p1[32:5],,6,,8b,,,,,,8b,,5>1[32:5],,
{16}6,,8b,,,,6,,7p3[8:1]/5>2[32:5],,,,,,,,
{16}6/1-5[8:1],,,,8,,8-4[8:1],,,,4>5[8:3],,,,1h[8:3],,
{16},,,,,,,,1,,5,,37,,,,
{16}5-8[8:1]/2h[4:1],,,,5,,3h[8:3],,1^4[8:1],,,,,,,,
{16}3-8[8:1]/6h[4:1],,,,3,,5h[8:3],,7<3[32:5],,,,,,,,
{16}1b/2,,3,,4,,8b/7,,6,,5,,3b^5[8:1]/7b,,,,
{16}3/8^5b[8:1]*^3b[8:1],,,,8b,,,,1,7,1,7,2pp4[8:1]/6pp8[8:1],,,,
{16}2b<5b[4:2]/6b<3b[4:2]`Cf,,,,,,,,,,,,,,,,
{16}2^8[8:1],,,,2/7q3[8:1],,,,7/4v6[8:1],,,,48,,,,
{16}1^6[8:1],,,,1/2,,4>6b[4:1],,,,5,,5,,,,
{16}8-2[8:1],,,,8/3-7[8:1],,,,3/6-4[8:1],,,,61,,,,
{16}8^3[8:1],,6,,4,,4-1[8:1],,,,2,,2h[4:1],,,,
{16}1^6[8:1],,3,,5,,5-8[8:1],,,,6,,6h[4:1],,,,
{16}8^3[8:1],,4,,8,,7-3[8:1],,5,,7,,6p2[8:1],,,,
{16}8-4[8:1],,,,8/1^4[8:1]*^6[8:1],,,,1,,,,37,,,,
{16}26,,3-8[8:1],,5,,7-3[8:1],,,,1qq4[8:3],,,,4,,
{16},,,,6-2[8:1]*-1[8:1],,,,6,,,,48,,,,
{16}5/7,,6-1[8:1],,4,,2q6[8:1],,,,8pp5[8:3],,,,5,,
{16},,,,3-8[8:1]*q7[8:1],,,,3,,,,15,,,,
{16}3b^8[8:1],,8^5[8:1],,3,,4-8[8:1],,,,2,,,,3-7[8:1]/7,,
{16},,1,,1^4[8:1],,,,{24}8,7,6,5,,,{16}2x/7x,,,,
{16}6^1[8:1],,1^4[8:1],,6,,5-1[8:1],,,,7,,,,2/6,,
{16}2b-5[8:1]/6b-1[8:1],,,,2/6,,,,7,5,7,,2,4,2,,
{16}1b-6[8:1],,6^1[8:1],,1^4[8:1],,4q5[32:9]
,,,,7,,,,6-2[8:1],,
{16},,8,,8^5[8:1],,,,{24}1,2,3,4,,,{16}2/7,,,,
{16}8-3[8:1],,3^8[8:1],,8^5[8:1],,5-1[8:1],,,,1,,,,3,,
{16}7,5,6,,1,,24,,6,5,,3,4,,18,,
{16}27,,3,,4,,17,,3,,4,,27,,6,,
{16}5,,28,,6,,5,,17,,3,,4,,87,,
{16}3,,4,,28,,6,,5,,21,,6,,5,,
{16}7/8,,4,,1/2,,5,,8/7,,3/4,,2^3-6[8:23]/1,,5b/6b^7-2b[4:11],,
{16},,,,,,,,,,,,,,,,
{16},,,,,,,,,,,,,,,,
