&title=[Full]Call the shots
&artist=Roselia
&first=-0.345
&des=觉悟
&lv_5=14+
&des_5=觉悟
&inote_5=
(189){4},,,,{1}8-5[4:13]*z4[4:13],
,,,{8}6b/2b-5[8:1],
3,8,8<4[16:3],,3,2,1,
6,8/7-4[8:1],1,7/8,{4}2-6[8:1],2b/8b,
{8}5,4/3-8[8:1],2,3b/5b<1[16:3],,2,3,4,
{4}5-2[8:1]*-8[8:1],5,{16}1,2,3,4,1,8,7,6,
{4}3b/5h[4:1],{16}4,5,4,6,5,6,3,4,3,5,4,5,
{4}2h[4:1],{16}6,5,7,3,4,2,7,8,7,2,1,2,
{8}8h[8:1],{16}1,7,1,8,2,8,3,5,3,6,4,6,2,5,
{32}1,2,3,4,5,6,7,8,5/1,4,3,2,1,8,7,6,{8}2b/5,2bv5[8:1]*q6[8:1],,,,7,
{4}7<4[8:1],{8}1,1q5[8:1],,6,
,3/7,,5/1-4[8:1],,7,7,2/6V48[4:1],
,3,{4}3,{8}2,2/7,,3,
4,1,8,4,{16}6,5,6,5,{8}7,3b/8h[4:1],
{16},,2,1,2,7,8,7,1,2,3,4,1,8,7,6,
{8}5h[4:1],2,{4}2,{16}4,5,4,5,{8}3,2/7h[4:1],
{24},,,1,8,1,8,1,8,1,8,1,8,1,8,1,,,{8}2/6,4/8<3[4:1],
,2,2,1,8-4[8:1],4-8[8:1],8,6b,
,7,{4}2/8qq8[4:1],{8}3,3-1[8:1],,3/7-4[8:1],
,7/8-5[8:1],,8/3-7[8:1],,3,1,8/2>6[4:1],
,7,{4}7V15[4:1],{8}4,4-8[8:1],,4/6pp1[8:3],
,2,3,4,{16},,5,7,{8}5,4b/8h[2:1],
{16},,1,2,3,4,{8}5,{16}6,5,6,3,4,3,5,4,
5,2,3,2,4,3,{8}4,2/7,2-5[8:1]/7-4[8:1],1/8,7/2,
{16},,3,4,3,4,{8}2,1-5[8:1],5-3[8:1],{4}1,
7h[4:1],{8}3,5,2/6,4,1/7,5,
{32}1b/6,2,3,4,{8}7<4[8:1],{32},,,,7/8b,1,2,3,,,,,{16}6,2,{4}6V48[4:1],
{8}3,3,{16},,2,1,{4}2>5[8:1],2/8,
{32}1b/3,8,7,6,{8}5q1[8:1],1,{32}5/1b,2,3,4,,,,,{8}3<7[4:1],,7>3[4:1],
,3V51[4:1],,7,,6,{32}6,7,{16}8,{32},,,,8b/1,
7,6,5,{8}2>5[8:1],{32},,,,2/1b,8,7,6,,,,,{16}3,7,{4}2-5[8:1],
2/8,{16}6,4,{8}7-4[8:1],,3,{32}3,2,{16}1,{32},,,,8b/6,
1,2,3,{8}4p8[8:1],8,{32}4/8b,7,6,5,,,,,{16}6,2,{4}6<2[4:1],
2V86[4:1],4,{16}3,3,,,{4}2/6,
{8}7h[8:1],5,6/4,5/3,1/7,2-5[8:1]*-6[8:1],,2,
,3/4,4/5,5/6,{16}3,4,{8}2-5[8:1],5,2/6,
,,7<4[8:1],4q8[8:1],7,3,3,2q6[8:1],
,7,7,8,{16}3,1,{8}3,{16}6,8,{8}6>3[8:1],
2,2,,1,{4}7/8b>3[8:1],{8}6,6,
,2,{4}2/8,{8}4b/6b,{16}3,7,3,7,3,7,
{48}2,1,8,7,6,5,{8}4h[8:3],{16},,,,6,5,6,5,{8}7,3h,
,5h,2h,7h,{32}1h,2h,,,8h,7h,,,2h,3h,{16}4h,{32}7h,6h,{16}5h,
{32}1-5[8:1],8,7,6,5,4,3,2,{4}7b/1b,{16}8,4,{8}8v3[8:1],,8<5[8:1]/5-1[8:1],
,5/8>3[8:1],,8-4[8:1]/6-1[8:1],,6/8w4[8:1],,8,
{16},,2,6,{4}2>5[8:1],{32}2/5b,6,7,8,{8}1-5[8:1],{16}4,4,{8}1<6[8:1],
{16}3,3,{8}1,2,{16}2,4,3,5,4,6,{8}5,3b/7h[8:3],
{16},,,,2,4,{8}3,{16}7,5,{8}6-1[8:1],4,6b/3b,
,2,{4}3/7h[4:1],{32}4,5,6,7,8-4[8:1],1,2,3,{8}4/7,8b,
,3/5,{4}1/7-4[8:1],{8}7/4,3,2/5,{32}1b/7h[8:3],2,3,4,
,,,,,,,,{16}6,7,5,6,4,5,3,4,{8}2,6b/1b,
,7,{32}7b/1,6,5,4,,,,,{16}3,4,{8}3-8[8:1],2/6,3b,
,2/6,{4}4/8h[4:1],{16}3,7,3,7,{32}2,3,4,5,{8}6/8b,
7,{32}7,6,5,4,{4}3/1b-5[8:1],1,{8}6/4,6/4>7[8:3],
,5,5,5,6,6,6,5b/1b,
{16},,2,4,{8}3,{16}7,5,{8}6,{16}3,4,2,5,1,6,
{32}2,3,{16}4,{8}7,3/5,1,2/8,6,1/7,3h[4:1],
{32},,,,7,6,{16}5,{32}2,3,{16}4,{32}8,7,{16}6,{32}1,2,{16}3,6,6,{32}8,1,{16}2,5,5,
3,4,3,4,2,5,2,5,{8}1,{32}8b-4[8:1]/7b-3[8:1],6/1,5/2,4/3,,,,,{8}7b/8b,
,,2/6,7/8,{16}1,8,{8}1-5[8:1],,1<6[8:1]/2-4[8:1],
,2/1,{16},,3,5,{8}3,7/4>1[8:1],{32},,,,4/8b,7,6,5,
,,,,{16}7,3,{4}7<4[8:1],{32}7/4b,3,2,1,{8}8-4[8:1],{16}5,5,{8}8>3[8:1],
{16}6,6,{8}8,7,{16}7,5,6,4,5,3,{8}4,2b/6h[8:3],
{32},,,,,,,,1,2,3,4,5,6,7,8,1/5,2/6,3/7,4/8,{8}5p1[8:1]/1p5[8:1],,5b/1b,
{1},{4},,{16},,{32}2,
3,4,5,6,7,8,1,{8}2b/6b,
{16},,2,1,{8}2>5[8:1],3,2/8,7,{4}6-2[8:1],
{8}6-4[8:1],{16}1,1,{8}6,{16}8,8,{8}5q1[8:1],1<6[8:1],5,{32}2b,3,4,5,
,,,,{16}4,5,{8}4-2[8:1],6-1[8:1],4-8[8:1],6>3[8:1],4,6,
1-4[8:1],4-2[8:1],{4}1,{8}7,7<4[8:1],8,{32}7/8b,1,2,3,
,,,,{16}6,5,{8}6<1[8:1],7,6/4,3,{4}2-8[8:1],
{8}2-6[8:1],{16}6,6,{8}2,{16}7,7,{8}1q5[8:1],5>2[8:1],1,{32}6b,7,8,1,
,,,,{16}8,1,{8}8<5[8:1],3,{4}8/2,{24}3,4,3,4,3,4,
{8}2-5[8:1],5-3[8:1],{4}2,{24}8,7,6,1,2,3,7,6,5,2b/4b,{48},,,,,,,,,,{16}3,
4,{4}3qq4[8:3],{8}6,6,,7<4[8:1],
,7/1-5[8:1],,1/6,{16},,7-3[8:1],4,{8}6,7b/3V58[4:1],
,,2,2h[4:1],{16},,7,1,{8}7,{16}2,8,
{4}2>5[8:1],2/7,{16}6,5,6,5,{8}7,{32}2b,3,4,5,
,,,,{8}8,8,{16}2,1,{8}2,{16}7,8,7,8,{32}7b,6,5,4,
,,,,{8}1,{4}1V35[4:1],{8}6,6,7,{32}8b,7,6,5,
,,,,{16}3,4,{8}3,{16}6,5,{8}6,{16}2,8,2,8,{32}2b,3,4,5,
,,,,{8}6,{4}5/7,{8}2/8,{16}3,4,{8}3,5b/1b,
,2,{4}7/1pp1[4:1],{8}5,5-7[8:1],,5/2-5[8:1],
,2/8-4[8:1],,8/6-2[8:1],,6,8,1b>4[8:1]/7b<4[8:1],
,,,,6,6,{16},,3,4,
{8}5,{16}7,6,{8}5,3,{16}5,4,{8}6-1[8:1],5,6b/2b,
,3,{4}4/8h[4:1],{16}2,1,{8}2-5[8:1],3/7,2b/8<4[4:1],
,,3,3,{16}2,6,2,6,{8}1,3b/7b,
{16},,2,4,2,7,5,7,3,4,3,6,5,6,{8}2b,
{16},,3,4,2,5,{8}1,8/7,5,2/1,4,
{32}8b,7,6,5,{8}4bq8[8:1],8,{32}8b/4,1,2,3,,,,,{16}4,6,4,6,{8}3-5[8:1],
5-1[8:1],3,,7,{4}7<4[8:1],7/2,
{32}1b/5,2,3,4,{8}6<1[8:1],{32},,,,6/2b,3,4,5,,,,,{8}4>8[4:1],,8V24[4:1],
{16},,5,5,,,{8}6,{16}7,5,{8}7,{32}4/8,3,{16}2,{32},,,,7b/2,
6,5,4,{8}1>4[8:1],{32},,,,8b/1,7,6,5,,,,,{16}6,5,{8}6,4/7,
{16}3,4,2,6,5,7,3,4,1,6,5,8,{32}2,3,{16}4,{32},,,,1b,
8,7,6,{8}5q1[8:1],1,{32}5/1b,2,3,4,,,,,{16}3,7,{4}3V51[4:1],
{8}7,7,{4}8-4[8:1],8<5[8:1]*>3[8:1],8b,
{8}2/6,4,3/7,5,3/1,{16}4,5,{8}4,8/6h[4:1],
{16},,3,5,3,6,4,6,2,3,4,5,8,7,6,5,
{4}4/2,{8}1-3[8:1],6-8[8:1],1-5[8:1],6-2[8:1],1,6,
,4,4,5,{16}2,8,{8}2,{16}7,1,{8}7>2[8:1],
3,3,,4,{4}6/5b>2[8:1],{8}8,8,
,3,{4}3/5,{8}1b/7b,{16}2,6,2,6,2,6,
{48}3,4,5,6,7,8,{8}1h[8:3],{16},,,,6,2,6,2,{8}7,3h,
,5h,2h,7h,{32}3h,4h,,,6h,5h,,,2h,3h,{16}4h,{32}7h,6h,{16}5h,
{32}1-5[8:1],8,7,6,5,4,3,2,{4}7b/1b,{16}8,4,{8}8-4[8:1],,8<5[8:1]/3-1[4:1],
,8/3-7[8:1],,3-5[8:1],{16}5,5,{8}3,{16}6,6,{8}2b,
{16},,3,7,{4}3-5[8:1],{32}3/6b,7,8,1,{8}2<7[8:1],4,2-4[8:1],
3,2,{16}6,6,2,4,3,5,4,6,{8}5,8b/4h[8:3],
{16},,,,7,5,{8}6,{16}2,4,{8}3-8[8:1],5,3b/6b,
,7,{4}6/2h[4:1],{32}5,4,3,2,1-5[8:1],8,7,6,{8}5/2,1b,
,6/4,{4}8/2-5[8:1],{8}2/5,6,7/3,{32}1b/7h[8:3],2,3,4,
,,,,,,,,{16}8,7,1,8,2,1,3,2,{8}4,5b/3b,
,2,{32}2b/8,3,4,5,,,,,{16}6,5,{8}6-1[8:1],7/3,6b,
,7/3,{4}1/6h[4:1],{16}2,5,2,5,{32}1,2,3,4,{8}5/7b,
8,{32}8,7,6,5,{4}4/1b-4[8:1]*-6[8:1],1,{8}3/7,7/3,
{16},,4,5,4,6,5,6,3,7,3,7,{8}2,5b/1b,
{16},,2,4,{8}3,{16}7,5,{8}6,{16}3,4,2,5,1,6,
{32}2,3,{16}4,{8}7,3/5,1,2/8,6,1/7,3h[4:1],
{32},,,,7,6,{16}5,{32}2,3,{16}4,{32}8,7,{16}6,{32}1,2,{16}3,6,6,{32}2,3,{16}4,7,7,
5,6,5,6,4,7,4,7,{8}3,{32}2b-6[8:1]/1b-5[8:1],8/3,7/4,6/5,,,,,{8}1b/2b,
,,7/3,2/1,{16}8,1,{8}8>3[8:1],,8-4[8:1]/7-5[8:1],
,8/7,{16},,6,3,{8}6,2/7<4[8:1],{32},,,,7/8b,1,2,3,
,,,,{16}6,3,{4}6-4[8:1],{32}6/3b,2,1,8,{8}7>2[8:1],5,7-5[8:1],
6,7,{16}3,3,6,4,5,2,4,3,{8}6,4b/8h[8:3],
{32},,,,,,,,5,6,7,8,1,2,3,4,1/5,8,7,6,1/5,2,3,4,5,6,7,8,{8}5b/1b,
{16},,3,4,3,6,5,6,3,4,2,6,{8}1,{32}8b-4[8:1],7/1,6/2,5/3,
{2}4,{16}4,5,3,6,2,7,{8}1b,
{16},,6,5,6,5,{8}7,4-2[8:1],5,{4}4b/6b,
{8}6,{16}3,4,{8}3,{16}6,5,{8}7-4[8:1],8,{4}7b/4b,
{8}3/5,3/5,{16}2,4,{8}2,{16}1,2,3,4,8,7,6,5,
2,4,3,4,1,5,4,5,{8}2-6[8:1],7,{4}2b/8b,
{8}7<4[8:1],4,3,2,1>4[8:1],5,6,7-3[8:1],
,7/8-4[8:1],,8/1-5[8:1],,1/3,{4}3,
{8}2/6,5,3/7,4,2/6,5,{16}3-1[8:1],4,{8}2,
3-7[8:1],5,3,5,{16}8,4,1,5,2,6,3,7,
{4}4b-8[8:1],{8}6,6,{24},,,1,7,1,{8}7,2/6,
{4}1b/5h[4:1],{16}3,4,{8}2,2,{24}6,4,6,{8}4,3/7,
{4}5b/4h[4:1],{16}6,5,{8}7,7,{24}3,5,3,{8}5,2/6,
{4}3b/8h[4:1],{16}2,1,{8}3,3,{16}5,4,5,4,{8}6,
{4}5b/7h[4:1],{16}4,5,4,6,5,6,3,4,3,5,4,5,
{24}3,4,3,4,3,4,2,5,2,5,2,5,{12}3,4,5,4,5,6,
{8}7/3,{16}4,5,4,5,{8}3h[4:1],,4,{4}2/5,
{16}1,8,1,8,3,4,3,4,2,1,2,1,5,6,5,6,
{4}4b-8[8:1],4-2[8:1]/6<1[8:1],4/6-4[8:1],6,
1-3[8:1]/5<8[8:1],1-5[8:1],4-2[8:1]/1<6[8:1],1/4,
1-5[8:1],{8}1-3[8:1],6,1,{16}7,7,4,8,4,8,
{4}3<6[8:1],3/8,{16}7,5,{8}7,{16}2,4,{8}2,
{4}1b/6b,{8}4,3b/5b,{16},,2,6,2,6,{8}2,
{4}3b/8b,{8}5,6b/4b,{16},,7,3,7,3,{8}7,
2b/8b,2b/8b,{16}3,5,4,7,5,6,2,4,3,6,4,5,
{32}2,3,{16}4,{8}6,{32}3,4,{16}5,{8}7,{32}4,5,6,7,8,1,2,3,{4}4b/8b,
{32}1b/2,8,7,6,{8}5q1[8:1],8,{32}8b/5,1,2,3,{8}4>8[8:1],8,{32}4/8b,7,6,5,,,,,{16}2,
6,{8}2,{16}7,3,{8}7,{4}1>4[8:1],{32}1/8b,7,6,5,,,,,2b/7,
3,4,5,,,,,{8}6,{32}1b/6,2,3,4,,,,,{8}5,{32}8b/5,1,2,3,{96},,,,,,,,,,,,{12}6,
4,7,2,5,3,7,1,5,4,7,1,
{4}6b-1[8:1],2,3-8[8:1],7,
{8}6,5/1,,2,{4}3/7,{16}4,5,{8}4,
{1}2bpp1[4:5]/6bpp5[4:5],
{8},,,,,,,2b/6b,
,,{4}7h[4:1],{24}1,2,3,4,5,6,8,1,2,3,4,5,
{4}6/2,{16}3,4,{8}3,6,4-1[8:1]/5-8[8:1],,5b/4b,
{16},,3,7,{4}3>8[8:1],{32}3/8b,7,6,5,{8}4-8[8:1],{16}1,1,{8}4<7[8:1],
{16}2,2,{8}4,3,{16}3,6,4,5,2,4,{8}3,1b/6h[4:1],
{16},,2,8,{8}2,{16}7,1,{8}7,{16}3,8,{8}3,{32}1b/2,8,7,6,
,,,,{8}1,{32}1b/5-1[8:1],2,3,4,{8}5,6,6,7,{32}1b/7,2,3,4,
,,,,{8}1,{32}1b/5-1[8:1],8,7,6,{8}5,4,4,3,{32}1b/3,8,7,6,
{8}5/2,{16}3,4,3,4,{8}2,{16}5,1,5,1,{8}6,{32}7b/8b,6/1,5/2,4/3,
,,,,{8}5,{4}5h[4:1],{8}1,4/3-1[8:1],{16}2,4,{8}3b,
,7,{4}6/8-4[8:1],{8}8>3[8:1],{16}6,6,{8}8,{16}7,7,
{4}5b-1[8:1],{32}5<8[8:1]/1>4[8:1],8,7,6,,,,,,,,,,,,,{8}1/5,{32}1/5,4/8,3/7,2/6,
{4}1q5[8:1]/5q1[8:1],1b/5b,{24}3,7,3,7,,,{8}4/6,2b,
{16},,2,4,3,6,4,5,3,5,4,7,5,6,3,3,
{32}8,7,{16}6,2,2,{32}7,6,{16}5,1,1,4,4,2,2,5,5,{8}3h[4:1],
{32},,,,7,6,{16}5,{32}2,3,{16}4,{32}8,7,{16}6,{32}1,2,{16}3,6,6,{32}2,3,{16}4,7,7,
5,6,5,6,4,7,4,7,{8}3,{32}1b-5[8:1]/8b-4[8:1],7/2,6/3,5/4,,,,,{8}8b/1b,
,,2/6,7/8,{16}1,8,{8}1<6[8:1],,1-5[8:1]/4>1[8:1],
,1/4,{16},,2,6,{8}2,3/8<5[8:1],7,{32}8/1b,2,3,4,
,,,,{16}6,2,{4}6<1[8:1],{32}6/1b,2,3,4,{8}5-1[8:1],{16}8,8,{8}5>2[8:1],
{16}7,7,{8}5,6,{16}6,3,5,4,7,5,{8}6,3b/8h[4:1],
{32},,,,,,,,2,3,4,5,{8}7h[8:1],{32}3,4,5,6,{8}8h[8:1],{32}4,5,6,7,8,1/7,2/6,3/5,
{4}4>1[8:1],{32}5b/4,6,7,8,,,,,{16}2,6,{8}2,1/5,{32}1b/5b,2/6,3/7,4/8,
,,,,{16}3,7,3,7,2,6,2,6,{8}1-5[8:1],,1b/7b,
,,6/4,2/8,{16}1,8,{8}1>4[8:1],2,6-1[8:1]/1-5[8:1],
5,6/1,{16},,3,7,{8}3,8/2>5[8:1],3,{32}2/1b,8,7,6,
,,,,{16}2,6,{4}2>5[8:1],{32}2/5b,6,7,8,{8}1-5[8:1],3,1>4[8:1],
2,1,{32}7,6,{16}5,3,3,6,4,5,3,{8}4,2b/6h[4:1],
{16},,1,7,1,8,2,8,{32}1,2,3,4,5-1[8:1],6,7,8,1,2/8,3/7,4/6,{8}5b,
{1},{4},,{16},,{32}1,
2,3,4,5,6,7,8,{8}1b/5b,
{16},,2,1,{8}2>5[8:1],3,2/7,8,7-5[8:1],3,
7-3[8:1],{16}2,2,{8}7,{16}1,1,{8}4-8[8:1],8<5[8:1],4,{32}1b,2,3,4,
,,,,{16}3,6,{8}3-6[8:1],7<4[8:1],3-1[8:1],7-3[8:1],3,7,
8-4[8:1],4-2[8:1],8,6,7,7<4[8:1],8,{32}7/8b,1,2,3,
,,,,{16}6,5,{8}7<4[8:1],8,4/7,3,2-6[8:1],6,
2-4[8:1],{16}7,7,{8}2,{16}8,8,{8}5-1[8:1],1>4[8:1],5,{32}8b,7,6,5,
,,,,{16}2,6,{32}2b,3,4,5,,,,,{16}7,3,{32}7b,6,5,4,{8}2,2,
1b/6b,{16}3b,4b,3b,6b,5b,6b,2b,4b,3b,7b,5b,6b,{8}1b,
,6h,2h,5h,{32}3h,4h,,,6h,5h,,,2h,3h,,,7h,6h,,,1h,
2h,{16}3h,{32}8h,7h,{16}6h,{32}2h,3h,{16}4h,{32}7h,6h,{16}5h,{32}2h,3h,4h,5h,8h,7h,6h,5h,1-5[8:1],2h,3h,4h,1h,8h,7h,6h,
{1}1b<1[4:13]*>1[4:13],
,,,{64}2,
3,{32}4,
E
