&title=響乱☆カウントダウン
&artist=P-key Peaky
&first=3.68
&des=anemone
&des_5=anemone
&lv_5=13+
&inote_5=(140){4}6h[2:3]/2h[2:1],,,2,
3h[2:3],,,7,
6h[2:3],,,3,
{8}4h[1:1],,,,,,,5,
{4}5h[2:3],,,3,
4h[2:3],,,6,
5h[1:1],,,2,
{2}3h[2:1],8-5[0.4286##0.4286],
(120)3-7[4:1],8-4[0.5##0.5],
(100)1>7[0.6##1.3059],(85)7>3[0.7059##0.7059],
(140){1}8bh[2:3],
{4}1,{8}2,2,{24}1,2,3,4,,,{8}5x-1[0.4286##0.2143]/6x-2[0.4286##0.2143],4x/7x,
{4}5x/6x,{32}8,7,6,5,4,3,2,1,{8}4/8,4,{4}4/E7,
{16}8<5[8:1],8,7,7,{4}8,{16}1>4[8:1],1,2,2,{4}1,
7x-4[8:1]/3x-8[8:1],3x/7x,{16}1,1,1,3,3,3,{8}4,
{16}6,6,6,6,6,6,{8}6,{16}1x/7x,,,2x/B8,B7,E7,{8}3x,
{4}4bx/7bx,{32}1,2,3,4,5,6,7,8,{2}1/5b-1[8:1],
{16}8-4[0.4286##0.2143],8,4-7[0.4286##0.2143],4,{4}8,{16}1-5[8:1],1,5,5,{4}1,
2bx-7[8:1]/6bx-3[8:1],2/6,{16}8,8,7,7,6,6,{8}5,
{2}5s1[8:1],{16}8x/4,,,7x/E3,E2,E1,{8}6x,
{4}5bxh[4:1]/8bx-4[8:1],8bx,3bxh[4:1]/2bx-7[8:1],2bx,
{16}5<8[8:1],5,6,6,{4}5,{16}4>1[8:1],4,3,3,{4}4,
8b-4[8:1]/4b-8[8:1],{16}4/8,C,,,1,1,2,2,3,3,{8}4,
{16}5x,5x,5x,6x,7x,7x,{8}7x,{4}1x-5[8:1]*>4[8:1],1x,
{2}7bxv2[8:1]/8bxq4[8:1],{32}1,2,3,4,5,6,7,8,1,2,3,4,5,6,7,8,
5/1,E2/E6,B6/B2,B7/B3,,,,,A2/A6,E3/E7,B7/B3,B8/B4,,,,,A3/A7,D4/D8,A8/A4,D1/D5,,,,,{4}E1/E5/E6/B5/B1/E2,
{12}2/8bxh[4:1],2,2,C,,,7/3bxh[4:1],7,7,C,,,1/5bxh[4:1],
1,1,E2,,,8/4bxh[4:1],7,6,E6,,,{4}3bx/7bxqq5[8:1],
2,6/1pp3[8:1],5,
{8}4/6,{16}7,8,{8}7,5x/1-6[8:1],{16},5x,,,{4}5x,
4bx-8[8:1]/3bx-7[8:1],3/4,{16}6,1,5,2,4,3,{8}4,
{4}5bx-1[8:1]/6bx-2[8:1],5/6,{16}8,3,7,4,6,5,{8}6,
{4}8b-4[8:1]/7b-3[8:1],8/7,{16}6,1,5,2,4,3,{8}4,
{4}2b-6[8:1]/1b-5[8:1],2/1,{8}7/3,3/7,{16}4,5,{8}4,
{4}3/6,{16}6,4,6,3,5,3,6,4,{4}6x<1[8:1],
3x/6x,{16}3,5,3,6,4,6,3,5,{4}3x-6[8:1],
6x/3x,{16}7,1,7,2,8,2,7,1,{4}7x-3[8:1],
{8}7x/1x,E2,{16},5/E8,,,2/C,,,6/E3,,,{8}4/B6,
{4}4/5,{16}3,7,3,6,4,5,,5,{4}4x-8[8:1],
4x/5x,{16}6,2,6,3,5,4,,4,{4}5x-1[8:1],
4/5x,{16}3,7,2,6,2,5,,5,{4}3x,
{8}7x/3xh[1:1],E7,{16},E1,,,E6,,,B1,,,{8}E5,
{4}5b,{16}4,5,8,7,3,4,B2,4,{8}3,B7,
5/4,B3,{16}7,8,{8}B6,{16}1,8,B3,8,{8}1,B6,
3/6,B3,{16}5,4,1,2,6,5,B7,5,{8}6,B2,
,4xh[8:1]/8xh[8:1],{16},3xh[8:1]/7xh[8:1],,,6xh[8:1]/2xh[8:1],,,1xh[8:1]/5xh[8:1],,,{8}4x/8x,
4b/8b,B6,{16}1,2,{8}3/B7,{16}4/E6,E7,E8,E1,{8}3/E2,4,
6/5,B4,{16}8,7,{8}6/E3,{16}5/E4,E3,E2,E1,{8}6/E8,7,
1x/8x,{16}6,5,6,5,{8}6,1x/8x,{16}3,4,3,4,{8}3,
7x/1x,{16}6,4,5,3,{8}4,2x/8x,{16}3,5,4,6,{8}5,
7x/1x,1/7,2/6,2/6,{16}5,2,7,4,6,1,5,2,
{2}8b,{24}5,4,5,4,5,4,5,4,5,4,5,4h[3:2],
{4}5h[8:5],{32},,,,,,,,,,,,,,,,E6/E4,B6/B3,B7/B2,E2/E8,,,,,{4}5/2x<7[8:1],
{16}2/5x,6,{8}6-2[8:1],3,6/3,4V28[8:1],4,
4/7-4[8:1],{16}6,6,{8}7/1-4[8:1],2,1/6<1[8:1],7,{16}6/2,3,4,5,
{8}6,{16}7/8,7/8,,,{8}5/1,6/2,7/3,8/4,5xh[8:1]/1xh[8:1],
{16},,4x/7x,5x/6x,,2x/5x,{8}3x/4x,{16}1x/2x,8x/3x,,8x/7x,{4}6x/1x,
{8}4/8-4[8:1],8/4V68[8:1],3,{16}2,2,,,{8}1/7,5/6,4/3,
2bx-6[8:1],8x-6[8:1],2x-5[8:1],8x-4[8:1],2x,8x,{16}3,2,1,8,
{2}7bp5[8:1],7b-4[8:1]/3bv8[8:1],
{24}8,1,8,1,8,1,8,1,8h[12:5],1h[8:3],{4},,{16},{64},{192},{32}8,
7,6,5,4,3,2,1,8,7,6,5,4,3,2,1,{2}8qq6[8:1]/4qq2[8:1],
{16}5<1[8:1],4,{8}4,{4}5,{16}4>8[8:1],5,{8}5,{4}4,
6-1[8:1]/2-5[8:1],2/6,{16}4,4,3,3,2,2,{8}1,
{32}8/7,D7,A6,D6,A5,D5,A4,D4,{8}A3,5x/1x,{16}6x/2x,,,3x/B8f/E8,,,{8}4x/E7f/D7,
{32}4x,5,6,7,8,1,2,3,4,5,6,7,8,1,2,3,{2}8bv6[8:1]/4bv2[8:1],
{16}2-5[8:1],2,5-1[8:1],5,{4}2,{16}7-3[8:1],7,8,8,{4}7,
1-5[8:1]/5-1[8:1],{16}1/5,C,,,6,6,5,5,4,4,{8}3,
{32}1/2,D1,A8,D8,A7,D7,A6,D6,{8}A5,7x/3x,{16}2x/6x,,,5x/B8f/E8,,,{8}5x/E3f/D3,
{32}5bx,4,3,2,1,8,7,6,5,4,3,2,1,8,7,6,{2}5/1bxV74[8:1],
{32}7bx/3,8,1,2,3,4,5,6,7,8,1,2,3,4,5,6,{2}7/3p6[8:1],
{32}1,2,3,4,5,6,7,8,1,2,3,4,5,6,7,8,1,2,3,4,5,6,7,8,1,2,3,4,5,6,7,8,
{2}1/5w1[8:1],{16}3,3,4,4,5,5,{8}6b,
E
