&title=184億回のマルチトニック
&artist=Pizuya’s Cell feat.中村さん
&first=0.05
&des=Biggy
&lv_5=14
&des_5=Biggy
&inote_5=
(184){4},{16},,,,,,,,,,,,3x,
5,4,5,4,5,3x,5,4,5,4,5,3x,5,4,5,
3x,5,4,5,4,5,3x,5,4,5,4,5,3x,5,4,5,
3x,5,4,5,4,5,3x,5,4,5,4,5,3x,5,4,5,
3x,5,4,5,4,5,3x,5,4,5,4,5,3x,5,4,5,
3x,5,4,5,4,5,6x,5,4,5,4,5,3x,5,4,5,
3x,5,4,5,4,5,6x,5,4,5,4,5,3x,5,4,5,
{4}3xh[4:1],{8}4,4,5/2,3,4/7,6,
5/4,{16}3,4,{8}2,2,{16}8,1,7,2,6,3,5,4,
{4}2b/7bV51[4:1],{8}7/3,4h[4:1],,2-6[8:1],4,2,
{4}3V15[4:1],{8}3/7,8h[4:1],,4,3,2,
1-5[8:1],7,1,8-4[8:1],2,8,2,2h[4:3],
,4,5,6,7b-3[8:1],7b,,,{4}2/4-7[8:1],
2,2/8-5[8:1],2,
2/4V68[2:1],2,3,3,
4-1[8:1],7,5-8[8:1],3,
7/4V28[2:1],7,6,6,
6-3[8:1],8,2-5[8:1],1,
7<4[8:1],8,{8}1,1>4-6[8:3],,7,
,,{4}1h[1:1],{8}6,6,,5,
{4}5,{8}4h[8:1],8h[8:1],3h[8:1],7h[8:1],2h[8:1],6h[8:1],
{4}1-5[8:1],1/5,{8}7,7-4[8:1],,7/8,
,2-5[8:1],{4}2,{8}6,7,{4}8/4,
7-4[8:1],7/2,{8}1,1-5[8:1],,1/5,
,7-3[8:1],{4}7,{8}2,2,{4}1/5,
5-1[8:1],{8}5/2,3-6[8:1],,3/1,{4}8,
7-3[8:1],{8}7/2,1-4[8:1],,1/6,{4}5,
{6}B5/A5,B6/A6,A7/B7,1x,2x,3x,
{4}4x-1[16:1],8x-5[16:1],{2}2x-6[16:1],
{8}7/5,8,3/5,2,{16}1,8,1,8,2,7,{8}2,
{16}6,5,6,5,{8}7h[4:1],4,{16}3,4,3,4,2,5,{8}2h[8:1],
7h[4:1],1,1,{16}2,6,{8}3h[4:1],5,5,{16}6,3,
7,4,7,4,6,3,6,3,5-1[8:1],2,5,2,{4}5,
{8}8/2,8/2,{16}3,5,3,5,4,6,4,6,3,5,3,5,
{8}2,{16}7,5,{8}7,{16}2,4,{8}2-5[8:1],5,{4}2,
{8}6/4,{16}3,4,{8}2,{16}6,5,{8}7-4[8:1],4,{4}7,
{8}3/5,{16}6,5,{8}8,{16}3,4,{8}1-5[8:1],5,{4}1,
{8}4/6h[8:3],3,2,1,5-1[8:1],2-4[8:1],5,2,
8,7,6,5,1-5[8:1],6-8[8:1],1,6,
4,4,6,6,{24}4x,3x,{12}2xh[24:7],{24},,6x,7x,{6}8xh[24:1],
{16}1,1,1,1,1,1,1,1,1,1,1,1,{4}1w5[8:1],
Cf,3/7,{8}6/4,5,{4}2/4,
1-5[8:1],1/7,1-5[8:1],1/3,
2-5[8:1],{8}2/1,8,{4}7-4[8:1],{8}7/8,1,
{4}2q6[8:1],2/8-4[8:1],8/1w5[8:1],1,
3/7,6-3[8:1],6/4,2-7[8:1],
2/8,6-3[8:1],6/4,2h[4:1],
8<4[4:1],4>8[4:1],8<4[4:1],4>8[4:1],
8<4[4:1],4>8[4:1],8<4[4:1],{16}4,3,2,1,
{4}8b,{8}1/6,2,{4}5/3-1[8:1],3/4,
5-1[8:1],5/3,5-1[8:1],5/7,
5<8[8:1],{8}2/5,3,{4}4>1[8:1],{8}4/7,6,
{4}5-8[8:1],5/1<6[8:1]*>4[8:1],1w5[8:1],1,
3/7,5/2>5[8:1],2/8,{8}7,7-3[8:1],
,7/2-8[8:1],,2,,5,6,7,
{4}4/8-4[8:1],{8}8/2,1<6[8:1],,1>4[8:1],,1,
,,{4}5h[4:3],{12}6,7,8,1,2,3,
{8}4,4/6h[4:1],,3,{4}4/2h[4:1],{8}6,5/7h[4:1],
,1,{4}8/2-5[8:1],7-4[8:1],1h[4:1],
3h[4:1],5h[4:1],7h[4:1],1,
8/1,{16}2,7,2,7,3,6,3,6,4,5,4,5,
3x,5,4,5,3x,5,4,5,3x,5,4,5,3x,5,4,5,
3x,5,4,5,3x,5,4,5,3x,6x,4x,5x,3x,6x,4x,5x,
3xh[16:3],,,4,{8}3,5/2,{16}6h[16:3],,,5,{8}6,7/4,
{16}2h[16:3],,,1,{8}2,8/3,{4}7b-4[8:1],7b/1b,
{16}3h[16:3],,,4,{8}2,5/1,{16}6h[16:3],,,5,{8}7,8/3,
{16}2h[16:3],,,1,{8}3,4/8,{4}7b-4[8:1],7b/1b,
{16}3h[16:3],,,4,{8}2,1/5,{16}6h[16:3],,,5,{8}7,8/3,
{16}2h[16:3],,,1,{8}3,4/8,{16}7h[16:3],,,8,{8}6,5/1,
2/4,2,3/6,6,5/7,5,6/4,6,
5/3,{16}2,5,3,6,{8}4h[8:1],{16}6,5,6,5,{4}8b,
{16}4,5,3,6,2,7,1,8,2,3,4,5,6,7,8,1,
{4}6/2<7[8:1],{32}6/2,5x,4x,3x,,,,,{4}3<6[8:1],{32}3/7,8x,1x,2x,,,,,{16}3,
5,4,6,3,7,2,8,1,2,3,4,5,6,7,8,
{4}5/1>4[8:1],{32}1/5,6x,7x,8x,,,,,{4}8<5[8:1],{32}8/4,3x,2x,1x,,,,,{8}1x,
1,1,{32}2/8,3x,4x,5x,{8}8,8,{32}7/1,6x,5x,4x,{8}1,
1,{32}2/8w4[8:1],3x,4x,5x,{8}8,8,,2-5[8:1]/6-1[8:1],{64},,,,,,,,2b-8z4b[2:3]/6b-4s8b[2:3],Cf,{1},,{16},{32},{1}4h[1:2]/5bh[1:4],
{4},,,,,,,,E3f,
D7/A8/A7/D1/D8/B8/B7/E8f,E6/B5f/B6/E5,Cf,
1xv6[8:1]*v4[8:1],B5f/B4/B6,8xv5[8:1]*v3[8:1],B3/B5/B4f,
1xw5b[8:1],B5f/A6/B6/B4/A4/D5/A5/D6,8xw4b[8:1],B4f/A3/B3/B5/A5/D5/A4/D4,
1x>5[4:1],5x<1[4:1],1x>5[4:1],5x<1[4:1],
1x>5[4:1],5x<1[4:1],1x>5[4:1],{16}5,6,7,8,
{4}1b,{8}4-1[8:1]/7-4[8:1],3,{4}4<8[8:1],2,
4>1[8:1],4/8,4-7[8:1],4/8,
2>5[8:1],{8}2/1,8,{4}7-4[8:1],{8}7/8,1,
{4}2q6[8:1],2/8-4[8:1],8/1w5[8:1],{64}1,Cf,,,,,,,,,,,,,,,{4}3/7,
1/8,{8}2b/5b,7b/4b,1b/5b,3b>7b[8:1]/7b<3b[8:1],
,3b/7b-3b[8:1],,,,5,6,7,
{4}8V64[8:1],{8}8/1,2-5[8:1],,2<7[8:1],,2,
,,{4}4h[4:3],{12}3,2,1,8,7,6,
{8}5,5/3h[4:1],,6,{4}5/7h[4:1],{8}3,4/2h[4:1],
,8,{4}1/7-4[8:1],2-5[8:1],8h[4:1],
6h[4:1],4h[4:1],2h[4:1],8,
1/8,{16}2,7,2,7,3,6,3,6,4,5,4,5,
3,5,4,5,6,5,4,5,2,5,4,5,7,5,4,5,
1,5,4,5,8,5,4,5,3,6,4,5,2,7,3,6,
{8}1x,1,1,{32}2/8,3,4,5,{8}8,8,{32}7/2,6,5,4,{8}1,
{32}2/8,3,4,5,{8}8,8,{32}7/1,6,5,4,{8}1,1,2/8,3/7,
{16}2,5,3,6,{8}4,{16}8,5,7,4,{8}6,{32},3,2,1,8,7,6,5,
{4}8/4>1[8:1],{32}8/4-7[8:1],7,6,5,,,,,{4}4x,{32}1,2,3,4,5,6,7,8,
{4}1bV36[4:1],{8}6/1,5h[4:1],,7-3[8:1],5,7,
{4}6V84[4:1],{8}2/6,1h[4:1],,5,6,7,
1/8,7/2,6/3,2/1,3/8,4/7,5/6,3h[4:1]/7h[4:1],
{16},,,,4,6,{8}4,3b/7b,5b/1b-5[8:1],{64},,,,,,,,1b/5b-3>2pp4[8:31]*-7>8qq6[8:31],B1,Cf,B5,
E
