&title=Recollect
&artist=鈴木このみ/Ashnikko
&first=0.540
&des=雨随风落
&clock_count=4
&wholebpm=144.900
&lv_5=13+
&des_5=
&inote_5=(145)
{1},
{8},,1xh[8:3],,,7h[8:3],,,5h[8:4],,,,4pp6[8:3]`4?qq2[8:3],,,,,,5h[4:1],,4,,3h[4:1],,4,,6q2[4:1],,2qq1[4:1]*pp3b[4:1],,,,,,
{16}1h[4:1]/4,,,,3h[8:5],,,,2h,,,2h,,,2h,,8/5h[4:1],,,,7h[8:5],,,,6h,,,6h,,,6h,,8/4h[4:1],,,,1h[8:5],,,,2h,,,3h,,,4h,,1/4h[4:1],,,,7h[8:5],,,,5h,,,8h,,,2h,,4/3h[4:1],,,,2<7[4:1],,,,4h,,,4h,,,4h,,5h[4:1]/6,,,,7>2[4:1],,,,5h,,,5h,,,5h,,2x<4b[4:2]/4h[4:1],,,,,,,,3h,,,2h,,,1h,,8-5>4-1[8:5],,,,,,,,,,,,,,,,
{8}8x/3bx>7[8:1],,7,5,4>8[8:1],,8,6,5V31[8:1],,1,7,6-1[8:1],,62,,13,4,1-4[8:1]/2,8,1/7-3[8:1],,73,,64,7,6/5-8[8:1],4,5/3-7[8:1],,73,,5b<1[8:1],,1,3,4<8[8:1],,8,2,3V57[8:1],,7,1,2,,13,4,1-4[8:1]/2,8,7-3[8:1]/1,,7/4-1[8:1],,54,,1,24,8-3[8:1],5-1[8:1]/6,8,5,4b>5b[8:3],,8x,,,7h[8:3],,,5h[8:3],,,4h[8:3],,,
{16}1h,,,1h/4h,,,2h/5h,,3h[8:3],,,,,,1h[8:3],,,,,,8h[8:3],,,,,,6h[8:3],,,,,,5b-1[8:1],,,,5/4>5b[4:2],,,,4x,,,,,,4x,,4-6v7>1b[4:2],,3,,4x/2,,,,,,3x,,,,,,4x/1x-5[8:1],,,,
{8}2,2,15,6,74,3,2/6-1[8:1],6,4,3,
{12}82,82,82,7<5-1[4:1]/3<5-1[4:1],73,73,,,,
{16},,,,8-4[8:1]/3-1[8:1],,,,8/3b,,,,51,,6,5,7,,12,,7-5[8:1]/4-8[8:1],,,,7b/4,,,,51,,3,4,2,,87,,1-4[8:1],,7,,5>2[8:1],,7,,1-5[8:1],,8,,7V53[4:1]/1b,,,,3V16[4:1],,1h[8:3],,,,,,,,,,65,,7,,4/6<5[4:1],,2,,4bh[4:1],,,,,,,,7,,65,,3,4,2,,1,,28,,7,5,6,,4<3[4:1],,35,,2h[4:1],,,,,,1,,4>5[4:1]/2,,5,,46,,,,4bx-8[8:1],,3,,2bx-5[8:1],,1,,7bx-3[8:1],,6,,7/4,,,,1-5[8:1]/4-1[8:1],,,,4b/1b,,,,51,,2,4,3,,64,,7<4[8:1],,1,,3-6[8:1],,1,,7,,8,8,5,,,,7-4[8:1]/4-8[8:1],,,,7b/4b,,,,51,,7,5,6,,53,,2>5[8:1],,8,,6-3[8:1],,8,,2,,1,1,4,,2,,5-2[8:1]/2-4[8:1],,,,2b/5b,,,,14,,7,7,5,,64,,3-8[8:1],,5,,7>2[8:1],,5,,3-8[8:1],,5,,35,,,,6-2[8:1],,1,,3-8[8:1],,4,,1-5[8:1],,7,,51,,,,
{4}7b/A3/B3f/E3/E4,8b/A4/B4f/E4/E5,1b/A5/B5f/E5/E6,2b<3<2[4:5]/A6/B6f/E6/E7,7h[4:5],,,,,,1p8q1[4:3],5h[4:3],,,,
{8}6>7[4:2]/4,6,7b,,6b,,5b,,B4/E4,E8/B8,
{16}1<5[8:1],,2,2,1,,,,
{8}4-7[8:1],3,1-6[8:1],2,1-3[8:1]/4,4,15,5,7-3[8:1],4,7x/2x-5b[8:1],1,2<7b[8:1]/6,,E7h[4:1]/B6fh[4:1]/A6h[4:1],,4bx-8[8:1],5x,3-6[8:1],2,3/8-4[8:1],7,8/6,7-3[8:1],6x/8xV25b[4:1],7x,8x,,Ch[384:1]
