&title=虚
&artist=Halv
&first=0.11
&des=ZEUTR0N in 「void」
&des_5=ZEUTR0N in 「void」
&lv_5=14
&inote_5=(188){4},,,,,,,,{2}5<4[2:15],
B1,
{6}E6,B6,B7,E8,{24},,{8}E4,E3,
E2,,,E1/B8/B1,,,{4}8x-6[8:1],
{8}E3,B2,B1,B8,B7,B6,B5,B4,
{2}5x-8[4:1],{8}A8/D8/E1,{16},,,,8x,7x,
{8}6x,,,6xh[8:3],,,,,{2}B5/E6/B6,
E8/B7/B8,
{1}B2/E2/B1,
{8}6b/3bh[8:3],7,8,1h[8:3],2,3,4,4h[8:3],
3,2,1,8h[8:3],7,6,5,4h[2:1],
5,6,7,6h[2:1],3,2,1,8h[1:1],
7,1,2,3,4,5,6,7,
1/8,7,6/5,{16}5x,6,4,6,{8}5,7/4,{16}4x,5,
{8}3,2/5,3x/4x,{16}3x,4,3,2,{8}3,2x,1x,
8/7,6,{16}8,7,1,6,2,5,{8}3,4x/5x,{16}3x/6x,7/2,
{1}1pp3>2v4[2:1]/8v6<7v5[2:1],
{8}1b<6[8:1],2,3,4>1[8:1],5,6,7<4[8:1],8,
1,2<7[8:1],3,4,5-2[8:1],6-1[8:1],5,6,
4-7[8:1],3,2,1-4[8:1],8,7,6-1[8:1],5,
4,3-6[8:1],2,1,8>3[8:1],7v4[8:1],8,7,
1-7<6[8:1],2,3,4-2<1[8:1],5,6,7-5>4[8:1],8,
1,2-8<7[8:1],3,4,5v2[8:1],6-1[8:1],5,6,
4-8[8:1],7-4[8:1],4,7,2v7[8:1],6-3[8:1],2,6,
8,1/5,2/6,3/7-5[8:1],8/4-8[8:1],7-3[8:1],4-2[8:1],7,
{4}4b,{16}7/1,,,8,{8}1-5[8:1],7,{4}7/1b,
{8}6,6,{16}3x-8[8:1],4,,4,{8}3,5x,{4}7b,
8/5-1[8:1],{16}8,,,8,{8}2x-6[8:1],8,7/2b,8,
7,6,{16}8x-4[8:1],7,,7,{8}8,6x,{4}5b,
{8}6/5,7,{16}8/1-6[8:1],,,2x,{8}1x,3,{4}4b,
{8}6/1,7/8,{16}1,2,3,4,{8}6/5-1[8:1],4,{4}6b/5,
7/8-5[8:1],{16}8/1,,,2,{8}2x-5[8:1],1,8b,7,
6,5,{4}5<1[4:1],{16}1/5,2,3,4,5,6,7,8,
{4}1/5b,{16}3/5,,,4,{8}5-1[8:1],2,{4}3/5b,
{8}3,2,{16}7x-3[8:1],8,,8,{8}7,2x,{4}4b,
4/1-5[8:1],{16}4,,,4,{8}6-2[8:1],4,3/6b,4,
3,2,{16}4x-8[8:1],3,,3,{8}4,2x,{4}1b,
{8}2/1,3,{16}4/5-2[8:1],,,6x,{8}5x,7,{4}8b,
{8}2/5,3/4,{16}5,6,7,8,{8}3/1-5[8:1],8,2b/1,3,
{16}4x,6,4,6,2x,1,2,1,4x,5,4,5,8x,7,8,7,
{24}8x,1,2,7x,6,5,1x,2,3,6x,5,4,{32}2b,3,4,5,6,7,8,1,2,3,4,5,6,7,8,1,
{4}2/6-4[8:1],1-4-2b[4:1],{8}1,8-5[8:1],7,8,
2-5[8:1],6,{4}6-2-8b[4:1],{8}3-7[8:1],4,3,6,
{4}8x/6-8[8:1],6/5-2-4b[4:1],{8}5,6-1[8:1],7,6,
4-1[8:1],8,{4}7-3-5b[4:1],{8}2-6[8:1],1,2,7,
{4}B8/B4/B2/B6/Ch[8:1],3/5-8-6b[4:1],{8}3v8[8:1],2,3,5,
1x>4[8:1],6,{4}7-1-5b[4:1],{8}2-6[8:1],3,2,7,
{4}8-6[8:1]*-2[8:1],8v5[8:1],{8}8/1-4[8:1],2,1,8x,
{16}3x,5,4,5,3x,5,4,5,4,5,3,5,2,5,1,5,
{8}8x-4[8:1],,,7xs3[8:1],,,,,6xv1[8:1],
,,8xz4[8:1],,,,,3x-8[8:1],
,,2xz6[8:1],,,,,8x<4[8:1],
,,3xs7[8:1],,,,,2/1x,
2,2/3,3,3/4,4,4/5,5,
5/6,6,6/7,7,7/8,8,8/1,1x,
{16}1,2,8,3,7,4,6,5,7,8,6,1,5,2,4,3,
{8}5x,{16}5x,5x,{8}5x-3[8:1],5x,{16}5,6,7,8,1,2,3,4,
{2}B1/E2/B2/5<4>5[0.3191##8.7766],{4}B8/B7,,
{16},B4/E5,,,B6/E7,,,E1/B1,,,{8}B3/E3,{16},B5,,B6,
,E7,,,,,,B8/C/B4/B2/B6,,,,,,5x-1[8:1],,,,A5,
,B4,,B2,,B8,,B6,,E8,,E2,,E4,
,E6,,,,,,,{8}4x>2[4:1],{16},,,,E1,E8,
{8}E7,,,B2/B3,{16},,,,,B8/B7,,,,B5/B4,
,,,,,,,1x>4[16:3],,,,,,,,,,,,,,,,,,5x,
,4x,,3x,
,7b/2bh[8:3],,6,,5,,4h[8:3],,3,,2,,1,,1h[8:3],
,2,,3,,4,,5h[8:3],,6,,7,,8,,1h[2:1],
,8,,7,,6,,7h[2:1],,2,,3,,4,,5h[1:1],
,6,,4,,3,,2,,1,,8,,7,,6,
,4/5,,6,,7/8,,8x,6,1,7,8,,6/1,,1x,
8,2,,3/8,,1/2,,2x,1,2,3,2,,3x,,4x,
,5/6,,7,,5,6,4,7,3,8,2,,1x/2x-6[8:1],,,,2b/1b-5[8:1],
,,,1b/8b-4[8:1],,,,8b/7b-3[8:1],,,,7b/6bx,,,,2-5[8:1],
,3/1,,2,,,,3,6,2,6,1,,7/3,
,8/2-5[8:1],,4/6-1[8:1],,2,,6,{32},,3x,4,5,6,7,8,1,2,{16}3b/7bqq4[8:3],,,,7,
,8,,1,,2-5[8:1],,,,8/2,,7>1[8:1],,6,
,5/7,,4,,3h[4:1],,1,8,7,6,5/1,,6/2,,3/7,
,8/4,1,2,3,4,5,6,7,8q5[8:1]/4>1[8:1],,,,,,,,7-4[8:1],
,3v8[8:1],,7,,3,{32},,6x,5,4,3,2,1,8,7,{16}2b/6b,,,,8,
7,8,7,8,7,4,5,4,5,4,5,2,1,2,
1,2-6[8:1],,,,2/1-5[8:1],,,,1/8-4[8:1],,,,8/7,,,,2-5[8:1],
,1,,8/2,,7,,2-5[8:1],,1,,8/2,,7,
8,1,2,3,4,1/5<8[4:1],,,,8>3[0.3192##0.3191],,,,3<6[0.3191##0.3191],,,,B8/E1,
,,B3/B4,,,B6/E6,,,{8}4-1[8:1],{16},4,,6,
5,4,3,2,1,4/8qq5[8:3],,,,4,,3,,2,,1,
,6-1[8:1],,5,,4/6,,3,,6-1[8:1],,5,,4/6,,3,
,4>1[4:1],,,,1<6[4:1],,,,6>4[8:1],,,,3,,,,2x,
1,2,1,2,1,4,5,4,5,4,5,8,7,8,
7,8,7,2,5,2,5,2,5,3x/4x,{48},,,5x,,6x,,7x,,8x,,1x,,2x,,3x,,4x,
,5x,,{16}6xpp1[2:1],,6,,4,,3,,4,,4,,3-1[8:1],,4-6[8:1],
,3-7[8:1],,4-8[8:1],,3,,4,{32},,2x,3x,4x,5x,6x,7x,8x,1x,{16}2bpp5[2:1]/6b-1[8:1],,,,6/2,
,,,8,,7h[4:1],,,,,,7/4x-2[8:1],,,,6/4-8[8:1],
,5,,4,,2-4[8:1],,,,2/8,,1,,8,
,3bx/4h[4:3],,2,,1,,8,,7bx,,8,,1-7[8:1],,2-6[8:1],
,1-5[8:1],,2-4[8:1],,1,,2,{32},,7x,6x,5x,4x,3x,2x,1x,8x,{16}3b/7b,,,,2,
1,2,1,3,7,3,7,4,8,4,8,5,1,5,
1,5,1,4,8,3,7,2,6h[16:9],{48}1b,,8,,7,,,,5,,4,,3,,2,,1,,8,,7,
,,,{16}5-1[8:1],,4,,5/3,,2,,5-1[8:1],,4,,3/5x<8[8:1],,2,
,3/5>2[8:1],,,,7/5<8[8:1],,,,3/5w1[8:1],,,,5,,,,3/7-4[8:1],
,,2,7,,1,,,{8}2h[16:3],{16},6,,6,
5,4,3,2,1,8/4>8[8:3],,,,4/8,,7,,6,,5,
,1/7,,4,,8/2,,5,,3/1,,5/6,,6/8,,4/5,
,3-7b[8:1],,3,,4-8b[8:1],,4,,5-1b[8:1],,5,,6,,6,
,4,5,4,3,4,2,4,1,4,8,4,7,4,6,4,
5,{48}4b,,3,,2,,5b,,6,,7,,3b,,2,,1,,6b,,7,,8,{96},,{32}3b,4,5,6,7,8,1,2,3b,4,5,6,7,8,
1,2,{16}3b/7b<7-1-3-5-7[16:109],,,,,,,,B3,,,,,,,,E1,
,,E8,,,E7,,,{8}B2/B3,{16},B5,,B6,
{48},,,E2,B2,,,,,,,,,,,,,,,,,B6,B5,,,,,,,,,,,,,,,,,{16}Ch[4:5],,,,B2,
,B1,,B8,,B7,,E8,,E1,,E2,,E3,
,,,,,,,,,C,{32},,,,,,,,,,,3x,
,2x,,1x,,,,,,,,,,,{16}B1/B2,,,,,,B4/A4,,,,2xh[1:1],
,,,,,,,B6/E6/B5,,,,,,,,,,,,3/6h[4:1],
,2,,1,,8h[8:3],,7,,6,
,5,,5h[8:3],,6,,7,,8,,1h[8:3],,2,,3,
,4,,5h[2:1],,4,,3,,2,,3h[2:1],,6,,7,
,8,,1h[4:3],,2,,8,,7,,6,,5,,4h[8:9],
,8,,7,,6,,5,,3,,2,,1,,8,
,7h[4:1],,B5,,E3,,6h[4:1],,E5,,E2,,5h[4:1],,B5,
,A3,,7h[8:7],,E1,,E2,,E3,,E4,,E5,,E6,
,E7,,5h[4:1],,E1,,B6,,4h[4:1],,B1,,A7,,3h[2:1],
,E5,,E6,,E7,,E8,,5x/7x-5-2[4:1]*-5-2[4:1],,7x/5x-1[8:1],
E
