&title=[創作譜面]メルト
&artist=supercell
&first=0.05
&des=Yoru
&lv_6=14
&des_6=Yoru
&inote_6=
(170){4},,,,7h[4:7],
{8}6,6,{4}5,4,
3,2,{2}1,
{4}2h[4:7],{8}3,3,{4}4,5,
6,7,{2}8,
{4}8h[2:3],{8}1,1,{4}7,2,
6,3,5,{8}8x/1x,8x/1x,
{24}1x/8x,2,3,4,5,6,7,8,1x,2,3,4,5,6,7,8,1x,2,3,4,5,6,7,8,
{16}1bx,2,3,4,5,6,7,8,1,2,3,4,5,6,7,8,
{4}1x/Cf,8<5[4:1],5>2[4:1],2<7[4:1],
7pp2[8:3],,,6V47[4:1],
{8},,3V52[4:1],3,{2}3h[4:1],
6h[4:1]/7qq4[2:1],8h[4:1],
3-7[8:1],3-8[8:1]*-6[8:1],
5-1[8:1],5qq3[8:1]*pp7[8:1],
{1}5w1[2:1],
{8}6h`4h,6h`4h,{16}6,4,,,4,2,,,2,8,,,{4}8/6,
{8}6h[16:1],7,6h[16:1],5,6h[16:1],7,
6h[16:1],5-1[8:1],6h[16:1],7-3[8:1],{16},,,,,,,3x,
{8}3xh[16:1],2,3h[16:1],4,3h[16:1],2,3h[16:1],4-8[8:1],
3h[16:1],2-6[8:1],,,,,{4}6-2[8:1],
{8}6,,,6,{2}6-3[8:1]*-1[8:1],
8-4[8:1],8w4[8:1],
{1}8qq4[8:5]*pp4[8:5],
{8}8h`1h,8h`1h,{16}1,3,,,3,5,,,5,7,{32},,,,1pp3[8:1],
8,{16}7,,,{4}1q5[8:1],{32},,,,,,,,8qq6qq4[2:1]*pp2pp4[2:1],1,{16}2,,,,,,,,,,,{4}B4f,
{32}5pp7[8:1],4,{16}3,,,{2}5q1[8:1],
{4}2<6[8:1],{32}E2/2-6<7-3>2b[2:1],E1,E8,E7,,,,,{4}Cfh[2:1],
,,8h[2:1]/7<5<7[4:1],
,,{2}1h[1:1]/5-8>1-4[4:3],
{4},,,5<2[4:3],
5,5,5,5,
5b-7[8:1],5b-3[8:1],5b-8[8:1],5b-2[8:1],
{2}5bpp1[8:5],4b-2[8:1],
{4}4bpp4[2:1],4bqq4[4:1],{32},,,,,,,,,,,,,,,,8b<3[32:5],
7<3[32:5],6>1[32:5],5>8[32:5],,,,,,,,,{8}A2f,,,{4}2>4[8:1],
8<6[8:1],2>4[8:1],8-6[8:1],2-4[8:1],
8qq4[2:1],3x-1[4:1],,,,{32}7,
6,{16}5pp5b[16:15],{32},,,,3,4,{16}5qq5b[16:11],,,{4}B5f/E6/E5,
,,,8qq7[8:1]*pp1[8:1],
8w4[4:1],,,6h[4:1],
{8}3h[2:1],6,6,6,6h[2:1],3,3,3,
{4}3h[2:1],1-7[8:1],1-6[8:1],1<5[8:1],
{32}4b>7[32:5],3>7[32:5],2<5[32:5],1<4[32:5],,,,,,,,,{8}A6f,,,{4}3>1[8:1],
5<7[8:1],3>1[8:1],5-7[8:1],3-1[8:1],
5pp1[2:1],2x-4[4:1],,,,7/8<5[8:1],
1/8>3[8:1],7/8-5[8:1],
1/8-5-7[8:3],4-8[8:1],,1x-4-2[8:3],
5-1[8:1],,,Cf,
{8}8/1,1/2,3/2,3/4,5/4,6/5,7/6,7/8,
1h[16:1],8,8h[16:1],7,7h[16:1],6,{24}4,5,4,5,4,5,
{4}4h[4:1]/5x-8[8:1],,,5h[4:1]/4xpp4[4:1],
4x-1[8:1],,,3h[4:1],
{8}4,4/5,5/6,6/7,7/8,8/1,1/2,2/3,
3/4,4/5,{4}5-1[8:1]/4-8[8:1],{2}4b/5b,
4h[2:1],C,
{4}4h[2:1],B5,B6,B7,
{2}4h[2:1],{4}B3,B2,
{8}4h[2:1],,,B4,,,,,{2}Ch[4:7]/1p5[8:1],
1-4[8:1],
2p6[12:1],{4}2-8[8:1],2-4[12:1],
{8}2/7,7,6,6,5,5,4,4,
{24}3,4,5,6,,,3,4,5,6,,,{4}3h[4:1],6b,
{32}5,6,{16}7h[16:5],{32},,,,,,,,4,5,{16}6,{32},,,,,,,,4,3,{16}2h[16:5],{32},,,,,,,,,3,
4,5,,,,,,,,,1x>3[32:3],8,{16}7,,,{4}1x-6[32:3],
{32}1xw5[32:3],2x,{16}3x,,,{4}B5,{32}8,1,{16}2h[16:3],,,,,{8}2h,
{32}3,4,{16}5h[16:3],,,,,{8}7b,8b,1b,{4}2b,
{8}4/3,4/3,1,7,6/5,5/6,8,2,
7/8,8/7,6/1,7/8,2/1,1/2,3/8,2/1,
8b/2b,{16}4,6,{8}5,8b/2b,{16}4,5,{8}3,6b/8b,{16}2,4,
{8}3,6b/8b,,7b<7[8:19]/3b-1-7[4:5],{2}3b/7b,
{4},,,,E7,
C,{2}E3,
{1}5>7[2:3],
{4}B6,C,{2}B2,
{1}3>5[4:5],
{4}B8,C,B4,{8}8x/1x,8x/1x,
{24}1x/8x,2,3,4,5,6,7,8,1x,2,3,4,5,6,7,8,1x,2,3,4,5,6,7,8,
{16}1bx,2,3,4,5,6,7,8,1,2,3,4,{4}5h[32:11],
{32}2b,1,8,7,,,,,,,,,8b,7/1,2/6,3/5,{4}4v6[8:1]*v2[8:1],4V68[8:1],
4V28[8:1],4,{8}5/7pp2[4:5],5,{4}5,
{8}5,4,{4}3,{8}3,4,{4}5,
,5b-8[8:1],4/5b,7b-4[8:1],
2/7b,{8}1bw5[8:1],1,,,{4}3bp6[8:1],
3b/6,{8}5bw1[8:1],5,,,{4}5h[4:1]/3h[4:1],
{8},5/3,{16}3x,5,3,5,{8}3,{24}2/5,3,4,{8}5,5/2,
{24}2/5,3,4,5,,,{8}6/3,{24}7/4,6,5,{8}4,7/4,{24}7/4,6,5,4,{96},,,,,,,,{32}8b,
1,2,3,{8}4,{32},,,,1b,2/8,7/3,6/4,{4}5v3[8:1]*v7[8:1],5w1[8:1],
B5f,2x>5[4:1],{8}5xqq6[8:3],6,7,7,
{4}7x>2[4:1],{8}2xqq3[8:3],3,4,5,4,5,
{4}4,{24}2/6h[2:1],3,4,5,,,5,4,3,2,,,{4}Cf,
3h[4:1]/6bq3[8:1],6b,{32},,,,,,,,5bh[4:1]/E5,E4,{16}E3,,,{4}2b-6[8:1],
{8}2/5,5h[4:1],,1b,,,7/2,
7/2,7/2,7/2,{24}2,1,8,7,,,2,1,8,7-5[8:1],{48},,,,{16}4,
4,{8}7-1[8:1],{16}4,4,{8}7<5[8:1],{16}4,4,{8}7,{4}3xh[32:7],
5xh[4:1]/C/B4/B2/B3,{8}2bv5[8:1],2b,,,{4}6xh[32:7],
4xh[4:1]/C/B5/B7/B6,{8}7bv4[8:1],7b,,,{4}E5,
{8}3/Cf,4x/5x,4/3,8/2,6/Cf,5x/4x,5/6,1/7,
4b/5b,6b/2b,4b/3b,Cf,,,,,{1}5h[2:3]/4<7[2:1],
{4}B5,B5,{2}B5,
{1}3h[2:3]/5p3[2:1],
{4}B3,B3,{2}B3,
{1}7h[2:3]/2pp7[2:1],
{4}B7,B7,B7,{8}2,2,
(150){32}4/2h[#1.600006],5,6,7,,,,,,,,,7,6,5,4,,,,,,,,,4,5,6,7,{96},,,,,,,,,,,,(73){12}3,
2,{48},,4/5,3,2,1,8,7,6,5,4,5x/3,2/6x,1/7x,{24}8,,C/B7/B1/B8,{4},{16},,{24},(79){48}1b/8b,
2/7,6/3,4/5,{96},,,,,,,,,,,,,,,,{32}1x,1,1,1,1,1,1,1,1x,2,1,3,1,4,1,5,1w5[16:1],6,1,7,,,,,{1}1b,
E
