&title=Hypnotize
&artist=rejection
&first=0.05
&des=int-star-p
&lv_5=13
&des_5=int-star-p
&inote_5=
(160){4}3h[4:1],,2h[8:1],3h[4:1],
,2h[8:1],{2}3h[4:1],
6h[4:1],{4}7h[8:1],6h[4:1],
,7h[8:1],6h[4:1],4h[4:1],
{2}6h[4:1],{4}7h[8:1],6h[4:1],
,8qq3[4:9],{2}8b,
{8},,,,,,,,,,,,,,,,6,
5,4,3,6,6,,6,
6,5,4,3,6,5,4,3,
6,5,4,3,6,6,,6,
6,5,4,3,6,5,4,3,
8<5[4:1],8,1,2,3,4,,1,
8<5[4:1],8,1,2,3,4,,,1>4[4:1],
1,8,7,6,5,,,{1}8qq4[2:1]/1pp5[2:1],
{2}6/3bh[4:1],{8}2<6[4:1],3,{4}2h[4:1],
{8},,2<6[4:1],3,{2}2h[4:1],
3/6h[4:1],{8}7>3[4:1],6,{4}7h[4:1],
{8},,7>3[4:1],6,{2}7h[4:1],
6/3h[4:1],{8}2<6[4:1],3,{4}2h[4:1],
{8},,2<6[4:1],3,{2}2h[4:1],
{4}1-5[8:1],1/8-4[8:1],8/3-7[8:1],3/6qq1[4:3],
{1}6b,
{4}6/3bh[4:1],{8}8-4[8:1],7,{4}8/1-5[8:1],1/6qq1[4:3],
{1}6,
{4}3/6bh[4:1],{8}1-5[8:1],2,{4}1/8-4[8:1],8/3pp8[4:3],
{1}3,
{8}4b,4,5,5,3,3,6,6,
2b,2,7,7,1,1,8,8,
{16}3b,6,3,6,3,6,3,6,2,7,2,7,2,7,2,7,
{4}1b,3h[8:1]/6h[8:1],2-6[8:1],2/8-4[8:1],
8b/1b,{8}1>5[4:1],2,1,{16}7,7,,6,{8}6,
2-6[8:1],3,2/8<4[4:1],7,8,{16}2,2,,3,{8}3,
7/1-5[8:1],2,1/8<4[4:1],7,8,{16}2,2,,3,{8}3,
7-3[8:1],6,7/1>5[4:1],2,1,{16}7,7,,6,{8}6,
3,{16}4,3,,4,{8}3,6,{16}5,6,,5,{8}6,
2,{16}1,2,,1,{8}2,7,{16}8,7,,8,{8}7,
3,{16}3,4,,4,{8}3,6,{16}6,5,,5,{8}6,
2,{16}2,1,,1,{8}2,7,{16}7,8,,8,{8}7,
{4}1b/7b,{8}8<4[4:1],7,8,{16}2,2,,3,{8}3,
7-3[8:1],6,7/1>5[4:1],2,1,{16}7,7,,6,{8}6,
2/8-4[8:1],7,8/1>5[4:1],2,1,{16}7,7,,6,{8}6,
2-6[8:1],3,2/8<4[4:1],7,8,{16}2,2,,3,{8}3,
6,{16}5,6,,5,{8}6,3,{16}4,3,,4,{8}3,
7,{16}8,7,,8,{8}7,2,{16}1,2,,1,{8}2,
6,{16}6,5,,5,{8}6,3,{16}3,4,,4,{8}3,
7,{16}7,8,,8,{8}7,2,{16}2,1,,1,{8}2,
{4}2b/8b,1-5[8:1],1/7-4[8:1],7/3pp8[4:3],
{1}3,
{4}3-7[8:1],3/8-4[8:1],8/2-5[8:1],2/6qq1[4:3],
{1}6,
{8}1b,2,3,4,5,6,7,8,
4b,3,2,1,8,7,6,5,
{16}1b,8,1,8,2,7,2,7,3,6,3,6,4,5,4,5,
{4}3b,8-6[12:1]*-5[12:1],8-3[12:1]*-2[12:1],8w4[12:1],
8b,{8}1V35[8:3],8,1b,{16}7,7,,6,{8}6,
{4}2-6[8:1],2/8V64[8:3],{8}8b,{16}2,2,,3,{8}3,
{4}7h[8:1]/2h[8:1],{8}8V64[8:3],1,8b,{16}2,2,,3,{8}3,
{4}7-3[8:1],7/1V35[8:3],{8}1b,{16}7,7,,6,{8}6,
2/1,{16}2,1,,1,{8}8,8/7,{16}8,7,,7,{8}6,
6/5,{16}6,5,,5,{8}4,4/3,{24}8,7,6,{8}5,6/4,
7/8,{16}7,8,,8,{8}1,1/2,{16}1,2,,2,{8}3,
3/4,{16}3,4,,4,{8}5,5/6,{24}1,2,3,{8}4,3/5,
{4}7b/1b,{8}8V64[8:3],1,8b,{16}2,2,,3,{8}3,
{4}7-3[8:1],7/1V35[8:3],{8}1b,{16}7,7,,6,{8}6,
{4}2h[8:1]/7h[8:1],{8}1V35[8:3],8,1b,{16}7,7,,6,{8}6,
{4}2-6[8:1],2/8V64[8:3],{8}8b,{16}2,2,,3,{8}3,
7/8,{16}7,8,,8,{8}1,1/2,{16}1,2,,2,{8}3,
3/4,{16}3,4,,4,{8}5,5/6,{24}1,2,3,{8}4,3/5,
2/1,{16}2,1,,1,{8}8,8/7,{16}8,7,,7,{8}6,
6/5,{16}6,5,,5,{8}4,4/3,{24}8,7,6,{8}5,6/4,
{16}2b/8b-3[16:3],,,3-6[16:3],,,{8}6-1[16:3],{16},1-4[16:3],,,{4}4-8[4:1],
{16}8-5[16:3],,,5-2[16:3],,,{8}2-7[16:3],{16},7-4[16:3],,,,,,,{8}3,
{16}3,4,,4,{8}3,6,{16}6,5,,5,{8}6,
7/8,6/1,5/2,4/3,1/2,3/8,4/7,5/6,
{16}7b/1b-6[16:3],,,6-3[16:3],,,{8}3-8[16:3],{16},8-5[16:3],,,{4}5-1[4:1],
{16}1-4[16:3],,,4-7[16:3],,,{8}7-2[16:3],{16},2-5[16:3],,,,,,,{8}6,
{16}6,5,,5,{8}6,3,{16}3,4,,4,{8}3,
2/1,3/8,7/4,5/6,8/7,6/1,2/5,3/4,
{16}1-5[16:1],,,1/7-3[16:1],,,{8}7/2-6[16:1],{16}2b,8-4[16:1],,,{4}8,
{16}2-6[16:1],,,2/8-4[16:1],,,{8}8/1-5[16:1],{16}1b,7-3[16:1],,,{4}7,
{8}2,{16}4,3,,6,{8}5,8b/7b,{16}8/7,1/6,{8}2/5,3/4,
7,{16}5,6,,3,{8}4,1b/2b,{16}1/2,8/3,{8}7/4,6/5,
{16}8-4[16:1],,,8/2-6[16:1],,,{8}2/7-3[16:1],{16}7b,1-5[16:1],,,{4}1,
{16}7-3[16:1],,,7/1-5[16:1],,,{8}1/8-4[16:1],{16}8b,2-6[16:1],,,{4}2,
{16}7,8,6,1,5,2,4,3,6,5,7,4,8,3,1,2,
{24}8,7,6,5,4,3,2,1,8,7,6,5,1,2,3,4,5,6,7,8,1,2,3,4,
{4}5b,{8}6h[4:1],3h[8:1],{16},,,7/2,,,{8}8/1,
{24}2b,3,4,5-1[12:1],{48},1b,,8,,7,,{16}6,{8}5b<5[8:9],{1},{4},,{24}7b,
6,5,4-8[12:1],{48},8b,,1,,2,,{16}3,{8}4b>4[8:9],{1},{4},,{24}2b,
3,{12}4,{48},8b,,7,,6,,,,,{24}1b,2,3,{48},,,7b,,6,,5,,,,,{24}1,2,3,4,,,7b,
6,{12}5,{48},1b,,2,,3,,,,,{24}8b,7,6,{48},,,2b,,3,,4,,,,,{24}8,7,6,5,{48},,,,{16}2,
1,3,8,4,7,5,6,3,4,2,5,1,6,8,7,
{32}1,2,3,4,5,6,7,8,1,2,3,4,5,6,7,8,1,2,3,4,5,6,7,8,1,2,3,4,5,6,7,8,
{1}1bh[1:2],
E
