&title=Ultimate Force
&artist=sakuzyo
&first=0.159
&des=HzRlax
&lv_4=13
&des_4=HzRlax
&inote_4=
(270){4},{8},,,,,,5,
4,5,4,4,5,4,5,
5,3,5,3,5,4,6,4,
6,3,3,7,7,4,4,6,
6,1,1,5xh[4:1]/1xh[4:1],,,,,{1}4bh[1:1]/8bh[1:1],
,2bh[1:1]/6bh[1:1],
,7bh[1:1]/3bh[1:1],
{4},,3b,{8}7b<2[4:3],4b,
{1}8bh[4:3],
{2}1b-5[4:1],{4}4b,4b-7-2-5b[1:7],
{1}Cf,
,Cf,
,Cf,
Cf,
Cf,
{2},,3h[4:5],
{4}4,5,
6,7,8/2,1/3,
{1}2h[1:2]/Cfh[1:2],
{4},,,,,,,,,,,,,,,,,6/1,
8/3,8/1,
6h[4:3],5,7,3,
{8}5,5,2,2,,7/3,,2,
{4}2h[4:3],8,4,6,
{8}3,3,5,4,,4h[4:1]/5h[4:1],,,{4}2h[4:3]/6-8[16:3],
6,1-5[16:3],1,
{8}3,3,4,4,3,4,2,5,
{4}6h[4:3]/1-5[16:3],1,4-2[16:3],4,
{8}6,2,7,1,{16}8,1,8,1,{4}8,
3h[4:3],4,2,6,
{8}4,4,7,7,,2/6,,7,
{4}7h[4:3],1,5,3,
{8}6,6,4,5,,5h[4:1]/4h[4:1],,,{4}7h[4:3]/3-1[16:3],
3,8-4[16:3],8,
{8}6,6,5,5,6,5,7,4,
{4}3h[4:3]/8-4[16:3],8,5-7[16:3],5,
{8}3,7,2,8,{16}1,8,1,8,{4}1,
7-5[16:3],8/7,7-4[16:3],7/1,
7-3[16:3],7/2,7-2[16:3],7/3,
4/6,3-1[16:3],6/3,3-5[16:3],
7/3,{8}7,7,5,5,6,4,
{4}3-1[16:3],5/3,3-8[16:3],3/5,
3-7[16:3],3/6,3-6[16:3],3/7,
8/2,7-5[16:3],2/7,7-1[16:3],
3/7,{8}4,4,1,1,3,8,
{4}2/1h[4:1],5b,8/7h[4:1],4b,
8/2h[4:1],4b,1/7h[4:1],5b,
{8}4,6,3,7,2,2,8,8,
{4}1/8,{16}1,2,3,4,5,6,7,8,{4}1/5-8[16:3],
1-4[16:3],7-4[16:3],{2}3-8[16:3],
{8}5,1,5,5,1,1,{4}6-3[16:3],
2-7[16:3],5-8[16:3],{2}1-4[16:3],
{8}8x,4x,7x,3x,{16}6,5,4,3,2,1,8,7,
(135){4}6bh[2:1]/3bh[2:1],{8},,,,3,2,
{4}1/6-1[8:1],B3/E3/B2,{8}8/3-8[8:1],8,{4}B6/E7/B7,
{8}1/7-4[8:1],7,{4}B2/B1/E2,{8}5/2-5[8:1],2,{4}B7/E8/B8,
2/6-3[8:1],C,8/4-1[8:1],B5,
6/2-7[8:1],E3,{8}4/8-5[8:1],4,E1,B2,
{4}6/3p7[8:1],C,{8}6-8[8:1],8-4[8:1],B1,B3,
3x-1[8:1],1x-5[8:1],B8,B6,6-8[8:1],6,5-1[8:1],5,
{4}5/8-4[8:1],B2/E3/B3,{8}3-1[8:1],4-8[8:1],3,4,
1-5[8:1],B8,{4}B6,{8}4w8[8:1],4,{4}B2/B6/C,
{1}1qq5qq1[2:3]/7-4-2-5-7[2:3],
,2-7-4-1[2:3]/8qq5[2:3],
,2p8q3[2:3]/6p4q7[2:3],
,3p8[2:3]/7-2-5[2:3],
{4},,,,Ch[16:1],
,,B7,
{8}B2,B6,{4}B4,,B1,
C,B5,B7,{16}B4,B6,B8,B2,
{4}B4/B6,,,3h[4:1],
{8}8b<5[8:1],2,8,{16}1,1,5,2,{8}6,{4}7/3,
{16}4b>1[8:1],5,{8}5,{16}4,6,{8}6,{16}7,1,7,1,{4}7,
{8}2-4[8:1],8h[8:1],2,{16}7,7,{8}6-8[8:1],{16}4,4,{4}6/3h[8:1],
{16}6,3,7,2,{4}8h[16:3],{16}2,7,3,6,{4}4-8[0.4444##0.1482],
{8}4b,1/5,2/6,7,{16}7b/5x,7b/4x,7b/3x,7b/2x,{4}7b/1x-5[12:1],
{8}1b,4/8,7/3,2,{16}2b/8x,2b/7x,2b/6x,2b/5x,{4}2b/4x>1[12:1],
{8}4b,8,7/1,7,{16}7x/6b,7x,7x/1b,7x,{4}7x/5b<8[12:1],
{8}5b,1,2/8,3/7,{16}3x/4b,3x,3x/2b,3x,{4}3x/5b,
(270){8}3,3,5,5,4,4,6,6,
3,3,5,5,4,4,6,6,
1b,1,7,7,3b,3,8,8,
2b,2,7,7,1b,1,8,8,
{16}1bx,2x,3x,4x,{8}8,8,{16}7bx,6x,5x,4x,{8}2,2,
{16}3bx,4x,5x,6x,1b,8,7,6,2b,3,4,5,8b,7,6,5,
{8}3x,3x,7x,7x,{16}3x,2x,{8}1x,{16}7x,6x,{8}5x,
1,5,1,5,{16}1bx,8b,7b,6b,5b,4b,3b,2b,
{1}1b/Cf,
{4},,,,4bx/7h[4:3],
8,6,2,
{8}8,8,3,3,,6/2,,3,
{4}3bh[4:3],5,1,7,
{8}2,2,8,1,,1h[4:1]/8h[4:1],,,{4}3bh[4:3]/7b-5[16:3],
7,4-8[16:3],4,
{8}2,2,1,1,2,1,3,8,
{4}7h[4:3]/4-8[16:3],4,1-3[16:3],1,
{8}7,3,6,4,{16}5,4,5,4,{4}5,
5b/2bh[4:3],1,3,7,
{8}1,1,6,6,,3/7,,6,
{4}6bh[4:3],4,8,2,
{8}7,7,1,8,,8h[4:1]/1h[4:1],,,{4}6bh[4:3]/2b-4[16:3],
2,5-1[16:3],5,
{8}7,7,8,8,7,8,6,1,
{4}2h[4:3]/5-1[16:3],5,8-6[16:3],8,
{8}2,6,3,5,{16}4,5,4,5,4,5,{8}4,
3-8[16:3],3,4-7[16:3],4,1-4[16:3],1,8-5[4:1],8,
{4}5>3[4:1],3>1[4:1],1<6[16:3],D1f,
5x-1[16:3],5x<8[16:3],5x>2[16:3],5x,
1-6[16:3],1-4[16:3],{2}1,
{8}6-1[16:3],6,5-2[16:3],5,8-5[16:3],8,1-4[4:1],1,
{4}4<6[4:1],6<8[4:1],8>3[16:3],D1f,
4x-8[16:3],4x>1[16:3],4x<7[16:3],4x,
8-3[16:3],8-5[16:3],{2}8,
{8}5/4,5/4,3,3,8/2,8/2,7,7,
{4}6bh[2:1],3b,5b,1b/8b,
{8}1/2,2/1,8/7,8/7,6/2,6/2,5/3,5/3,
{4}4bh[2:1],5b,7b,1b/3b,
{16}2,8,2,8,2,8,{8}2,{16}7,1,7,1,7,1,{8}7,
{4}6x/2x,{16}2,3,4,5,6,7,8,1,{4}6/2,
{8}6b/2b,3b-8[16:3]/7b-4[16:3],,7b/3b,,1bx/5bx,{4}6b/2b,
{16}3/7,4,5,6,7,8,1,2,3,4,5,6,7,8,1,2,
{1}3h[2:1]/4h[2:1],
{4}3z7[4:11]/4s8[4:11],4b/3b,{1},,{4},,{16}E8f/B7/B8,
B6/C/B1/B2/B5,{8}E4f/B4/B3,
E
