&title=非科学的表裏一体
&artist=豚乙女
&first=0.04
&des=ASPSA
&lv_5=13
&des_5=ASPSA
&inote_5=
(102){4},,,,{2}1>5[2:1],
{8}7,7,,,{2}8<4[2:1],
{8}2,2,,,{2}1>6[2:1],
{8}8,8,,,{2}8<3[2:1],
{8}1,1,{4}2,
{2}5V71[2:1],{8}3,3,,,{2}4V28[2:1],
{8}6,6,,,{2}5V72[2:1],
{8}4,4,,,{2}4V27[2:1],
{8}5,5,{4}6,
{2}3bqq4b[2:1],{8}6,7,8,1,
{4}2>5[4:1],5<8[4:1],8>3[4:1],5,
{16}6<1[4:1],,,5,{8}6,5,4,3,{4}2/1,
{16}2>5[4:1],,,1,{8}2,1,8,7,{4}6/5,
{2}6bpp5b[2:1],{8}3,2,1,8,
{4}7<4[4:1],4>1[4:1],1<6[4:1],4,
{16}3>8[4:1],,,4,{8}3,4,5,6,{4}8/7,
{16}7<4[4:1],,,8,{8}7,8,1,2,{4}3/4,
{2}2bq5b[2:1],{8}6x,7x,8,1,
{4}2<7[4:1],7<4[4:1],4>1[4:1],7,
{16}7-4[4:1],,,8,{8}7,8,1,2,{4}3/4,
{16}3-8[4:1],,,4,{8}3,4,5,6,{4}7/8,
{2}7bp4b[2:1],{8}3x,2x,1,8,
{4}7>2[4:1],2>5[4:1],5<8[4:1],2,
{16}3-8[4:1],,,4,{8}3,4,5,6,{4}7/8,
{16}7-4[4:1],,,8,{8}7,8,1,2,{4}3/4,
{8}8b/1b,{16}2-5[8:1],1,,1,{8}2,8q4[8:1],{16}5x,5x,,,,,{8}6b/3b,
{16}7-4[8:1],8,,8,{8}7,1p5[8:1],{16}4x,4x,,,{8}8,
{4}8p4[4:1],4p8[4:1],8V64b[4:1],4V28b[4:1],
8<4[4:1],4>8[4:1],{2}8w4[8:1],
{8}2b/6b,{16}3-8[8:1],4,,4,{8}3,5p1[8:1],{16}8x,8x,,,,,{8}7b/3b,
{16}6-1[8:1],5,,5,{8}6,4h[8:1],{16}1x,1x,,,{8}4p8[8:1]/8p4[8:1],
4bh[8:1]/8bh[8:1],,,4q8[8:1]/8q4[8:1],4bh[8:1]/8bh[8:1],,,8/4,
7/3,6/2,5/1,4/8,{2}4b/8bw4[8:1],
{16}8,7,1,2,8-4[8:1],7,1-5[8:1],2x,{2}8b-3[8:1],
{16}1,2,8,7,1-5[8:1],2,8-4[8:1],7x,{8}1b-6[8:1],,,8x,
{4}8<5[4:1],5>2[4:1],2<7[4:1],7<4[4:1],
{8}4>1[4:1],4,1<6[4:1],1,6>3[4:1],2,{4}1b,
{16}1,2,8,7,1-5[8:1],2,8-4[8:1],7x,{2}1b-6[8:1],
{16}8,7,1,2,8-4[8:1],7,1-5[8:1],2x,{8}8b-3[8:1],,,4-8[8:1]*-8[8:1],
4bh[8:1],,,4p8[8:1]/8p4[8:1],8bh[8:1]/4bh[8:1],,,4q8[8:1]/8q4[8:1],
8bh[8:1]/4bh[8:1],,,8-5[8:1]/4-1[8:1],{2}8bh[8:1]/4bh[8:1],
{16}B2/B3,,,B7,{8}B6,B3,E8/E4,E7/E3,{4}E6/E2,
{16}B7/B6,,,B2,{8}B3,B6,E2/E6,E3/E7,{4}E4/E8,
{16}B3/B2/E3,,,B7,{8}B6,B4,B3/B7,E3/E7,{4}B6/B2h[4:1],
{16}B6/B7/E7,,,B2,{8}B3,B5,B6/B2,E7/E3,{4}B3/B7h[4:1],
{16}3h[4:1],,,4,{8}4xpp8[8:3],3,4,3,{4}2h[4:1],
{16}6h[4:1],,,5,{8}5xqq1[8:3],6,5,6,{4}7h[4:1],
{16}2h[4:1],,,1,{8}1xqq5[8:3],2,1,2,3,4,
5/4,4/3,5/6,5/3,4/6,6/3,7/3,6/2,
7/2,8/2,7/1,8/1,1/8h[8:3],{16}B1,B2,,B3,{8}B4,
{16}1x>4b[8:1],7,8x<5b[8:1],2,1x-5[8:1],7,8x-4[8:1],2x,{2}1b-6[8:1],
{16}8x<5b[8:1],2,1x>4b[8:1],7,8x-4[8:1],2,1x-5[8:1],7x,{8}8b-3[8:1],,,2,
{4}2b>6[4:1],6<2[4:1],2V46b[4:1],6V82b[4:1],
{8}2>5[4:1],2,5<8[4:1],5,8>3[4:1],8,{4}6x,
{16}8x<5b[8:1],2,1x>4b[8:1],7,8x-4[8:1],2,1x-5[8:1],7x,{2}8b-3[8:1],
{16}1x>4b[8:1],7,8x<5b[8:1],2,1x-5[8:1],7,8x-4[8:1],2x,{8}1b-6[8:1],,,5-1[8:1]*-1[8:1],
5bh[8:1],,,1q5[8:1]/5q1[8:1],5bh[8:1]/1bh[8:1],,,1p5[8:1]/5p1[8:1],
5bh[8:1]/1bh[8:1],,,5w1[4:1],{2}5bh[8:1],
{16}2b>6[4:1],,,2,{8}2/6>2b[4:1],1,8-4[8:1],7,{4}8,
{16}7<3[4:1],,,7,{8}7/3<7b[4:1],8,1-5[8:1],2,{4}1,
{16}6<2[4:1],,,6,{8}6/2<6b[4:1],5,4-8[8:1],3,{4}4,
{16}3>7[4:1],,,3,{8}3/7>3b[4:1],4,5-1[8:1],6,{4}5,
{16}7b<3[4:1],,,7,{8}7/3V17b[4:1],2,5x-1[8:1],4x,{4}5,
{16}2>6[4:1],,,2,{8}2/6V82b[4:1],7,4x-8[8:1],5x,{4}4,
{16}6<2[4:1],,,6,{8}6/2V46b[4:1],3,8x-4[8:1],1x,{4}8,
{16}3>7[4:1],,,3,{8}3/7V53b[4:1],6,1x-5[8:1],8x,{4}1b,
E
