&title=サクラ・シークレット
&artist=BNSI(TAKU INOUE) 「シンクロニカ」より
&first=0
&des=悠然なる管理者。
&lv_5=13+
&inote_5=(145){4},,,,{1}6h[4:3]/5>2qq8[8:11],
5h[4:3],
3h[4:3]/4<7pp8[8:11],
4h[4:3],
6h[4:3]/5>2[2:1],
3h[4:3]/7pp8[2:1],
{2}2h[4:1]/6h[4:1],3h[4:1]/7h[4:1],
{64}4>8[2:1]*<8[2:1],8,{1},{16},,,{32},(160){4}Cf/5bq7b[2:1]*qq6b[2:1],
,,,Cf/1bq3b[2:1]*qq2b[2:1],
,,,A3f/B3/E4/8b<5b[8:1],
,A7f/E8/B7/E7/4b>1b[8:1],
,Cf/8bpp5b[2:1]*p6b[2:1],,,,Cf/1bqq3b[2:1]*q3b[2:1],
,,,Cf/5bqq7b[2:1]*q7b[2:1],
,,,A6f/B6/E6/1bpp3b[8:1],
,E3/B2/E2/A2f/5bpp7b[8:1],
,Cf/1b>8b[16:9],{16},,,,,,,,,,,,5x/6xh[16:3],
,,5,{8}7,7,{16}3x,4,{8}3,
{4}5/2,{16}4x/3xh[16:3],,,4,{8}2,2,{16}6x,5,{8}7,
{4}4/8h[8:1],{16}5x/7xh[16:3],,,5,{8}8,8,{16}4x,5,{8}3,
6/2,{16}3,4,2xh[16:3],,,4,{8}1,{16}6,5,7x,5,{8}6,
2h[4:1],{24}7x,6x,5x,{8}4xh[4:1],3,3,3,2x/8xh[4:1],2,
2,2,7x/1xh[4:1],7,7,7,6/5xh[4:1],6,
6,6,{16}3x,4,2,4,1x,5,1,5,8x,7,8,6,
1x,5,1,5,2x,6,4,8,3x,7,1,5,{24}2,3,4,7,6,5,
{32}1,2,3,4,8,7,6,5,{4}1s5[4:1],,,8b/1b,
2x/4x-1[8:1],{8}4/8,6,{16}3h[16:3],4,,4,
,2,{8}1,{16}3h[8:1]/8h[8:1],,,6h[8:1]/5h[8:1],,,{8}8/7,{16}2q6[8:1],1,,1,
{4}2,7x/5x-8[8:1],{8}5/1,3,{16}7h[16:3],5,,5,
,7,{8}8,{16}6h[8:1]/1h[8:1],,,3h[8:1]/4h[8:1]
,,,{8}5/6q3[16:3],{4}6/5,
,2x/4x-1[8:1],{8}4/8,6,{16}2<7[8:1],4,,4,
{4}2,{8}6h[8:1],{16}4,4,5,3,{8}8h[8:1],{16}1q5[8:1],7,,7,
{4}1,7x/5x-8[8:1],{8}5/1,3,{16}8h[16:3],5,,5,
,7,{8}2pp7[200:87],{4}6h[4:1],,5b>1[8:1]*<1[8:1],
,8x/2h[4:1],{8}1>4[8:1],8,1,8q5[16:3],
7,8,{4}6-2[8:1],4pp1[8:3],8h[4:1],
,2x/7h[4:1],{8}8<4[8:1],1,8,1qq4[2:1],
2,1,{16}3xh[8:1],,,2xh[8:1],,,{8}1x,{4}B6h[4:1]/B5h[4:1]/8>5[4:1],
,7h[4:1],{8}8-5[8:1],1,8,1V74[16:3],
2,1,{4}3-7[8:1],5qq8[8:3],1h[4:1],
,7x/2h[4:1],{8}1-4[8:1],8,1,7h[8:1],
5h[8:1],4h[8:1],{16}2,,,8/3,,,{8}6/1,{16}4b/2b,,,7b/5b,
,,{8}8b<1[8:5]/1b>8[8:5],,,,,,,,,{4}1b>4pp6[2:3],
,,,5qq3[2:1],
,,,5h[8:3]/1h[8:3],
,4/2h[4:1],
{16}4,3,{8}4,2h[4:1],{16}4,3,5,4,6,5,{4}7h[4:1],
,Cf/1bpp2[2:1],,,,A1f/E1/E2/5bpp6b[2:1],
,1h[4:1],
,5/2h[4:1],,4/3h[4:1],
,4h[4:1]/5<4[2:1],{16},,,,,,,,,,,,5x/6xh[16:3],
,,5,{8}7,7,{16}3x,4,{8}3,
{4}5/2,{16}4x/3xh[16:3],,,4,{8}2,2,{16}6x,5,{8}7,
{4}4/8h[8:1],{16}5x/7xh[16:3],,,5,{8}8,8,{16}4x,5,{8}3,
6/2,{16}3,4,2xh[16:3],,,4,{8}1,{16}7,8,6x,8,{8}5,
1/4,{24}4,3,5,{8}4xh[4:1],6,6,6,7x/5xh[4:1],7,
7,7,2x/8xh[4:1],2,2,2,3/4xh[4:1],3,
3,3,{16}6x,5,7,5,8x,4,8,4,1x,2,1,3,
8x,4,8,4,7x,3,5,1,6x,2,8,4,{24}7,6,5,2,3,4,
{32}8,7,6,5,1,2,3,4,{4}8qq5[3:1]*pp3[3:1],,,6b/2b>5b[8:1],
{32}5bx,6,7,8qq1[8:3],,,,,,,,,,,,,{4}2x<4[4:1],
3,{32}2bxq7[4:1],1,8,7,,,,,,,,,{8}1,{4}1xh[4:1],
8<5b[8:1],{32}5bx,4,3,2h[32:5],,,,,{8}3-7[8:1],1,3x,1-4[8:1],
8,1,{16}7x,,,3/5,,,{8}1/2,{32}8bx,7,6,5,{16}2,2,
4,4,3,3,{4}6xpp5[16:5],{32},,,,,,,,4bx-8b[8:1]*-7[8:1],3,2,1,,,,,,,,,,,,,{16}1x,
7,2,6,{32}1h,2h,3h,4h,5h,6h,7h,8h,{4}1bq5[8:1]*v4[8:1],
,6x<8b[8:1]/5xp1[8:1],,3bx>1b[8:1]/4xq8[8:1],
{16},,,,3x,6,4,5,2,7,3,6,1,8,2,7,
{32}1,2,3,4,5,6,7,8,{4}1xh[4:1]/5xh[4:1],{48},2bx/6bx,3bx/7bx,4bx/8bx,{12}5bx/1bx,{48},,,,{16}7,8,,1/6,
,2,{8}4,{32}1b,2,3,4,{16}6,6/5,,3,{8}3/4,{16}6,7/5,,3,
{8}2/4,8,{32}4bx/7bx,6/3,2/5,4/1,,,,,{16}1,1,4,4,{8}3/5,{16}7,1,
6-1[16:1],2,{8}5,{16}3b-6[16:1],,,8b-3[16:1],,,{8}5b<4[4:1]*>6[4:1],,,,,{4}3x-8[8:1]/7x-4[8:1],
7b/3b,{16}1-4[8:1],4,3,4,
{4}1,{16}6,5,7,3,4,2,6,5,{32}7,6,5,4,3,2,1,8,
{4}3-8[8:1]/7-4[8:1],3b/7b,1>4b[8:1],{32}5b,6,7,8,,,,,{16}5x,
5,7,7,3xh[16:3],,,4,{8}2,2,{16}6x,5,{8}6,
{4}4/7,{16}5x/6xh[16:3],,,5,{8}7,7,{16}3x,4,{8}2,
{4}5/1h[8:1],{16}4/2xh[16:3],,,4,{8}1,1,{16}5x,4,{8}6,
3/7,{16}6,5,7xh[16:3],,,5,{8}8,{16}2,1,3x,1,{8}4,
8/5,{24}5,6,4,{8}5xh[4:1],3,3,3,2x/4xh[4:1],2,
2,2,7x/1xh[4:1],7,7,7,6/5xh[4:1],6,
6,6,{12}3,3,5,2,2,8,4,4,7,
1,1,6,{48}2,,,4,,,{16}3,5,4,6,5,8,5,6,2,4,
3,4,1,5,{32}2,3,4,5,6,7,8,1,2,3,4,5,6,7,8,1,{4}2/7bh[2:1],
{48},,,,,,,,,,,,3bs7b[4:7],2/6z2[48:83],1/5,4/8,
E
