&title=TiamaT:F minor
&artist=TG
&first=0.04
&des=Fanfan
&lv_6=猩
&des_6=Fanfan
&inote_6=
(215){4},,,,,,,,1>5[4:1],
4,6,8<4[4:1],
5,3,1>5[4:1],4,
6,8<4[4:1],5,3-1[8:1],
6b-8[8:1],4b-2[8:1],5b-7[8:1],1,
8h[1:1],7,6,5,
{8}4,8,3,8,2,8,1w5[8:1],8,
{4}1,{8}6x-2[8:1],4,{4}6/3-7[8:1],3/1,
{8}1,6,1,5,1,4,8,3,
7,7h[4:1],4,4h[4:1],6,6h[4:1],5,5h[4:1],
1,1h[4:1],4,4h[4:1],7,7h[4:1],2,2,
5/1,4,8-4[8:1],4,{4}8w4[8:1],8-2[8:1]*-6[8:1],
8,{8}5x,3,5,2,5,1,
6,6h[4:1],2,2h[4:1],4,4h[4:1],8,8,
{4}6/1,{8}1-4[8:1],1,{4}6<2[8:1],6,
4-2[8:1],4-6[8:1],4-1[8:1],4,
{2}4h[2:1],7h[8:11],
{1}3bh[8:7],
{24}7/3,8/4,1/5,2/6,3/7,4/8,{4}5b-2-4-6-3[4:13]/1b-6-8-2-7[4:13],{1},,,{4},,{24}1b/8b,
2x/7x,3x/6x,4x/5x,,,,,,,,,2b/1b,3x/8x,4x/7x,5x/6x,,,,,,,,,8b/7b,
1x/6x,2x/5x,3x/4x,,,,,,,,,4b/5b,3x/6x,2x/7x,1x/8x,,,,,,,,,{8}1/8,
8/1,2/7,2/7,3/6,4/5,2/7,1/8,
{24}1,2,3,4,5,6,8w4b[8:1],7,6,5,4,3,{4}8b>1-7-2-6-3-5>4[4:1],8b,
{1}Cfh[4:7],
{4},,,{32}8b,7,6,5,4,3,2,1,
{8}8/7,6,7/8,5,7/8,4,7/8,8/7,
1/2,3,2/1,4,2/1,5,2/1,2/1,
7/8,5,7/8,4,7/8,3,7/8,8/7,
1/2,4,2/1,5,2/1,6,2/1,1/2,
1/7,6,1/7,5,1/7,4,1/7,7/1,
8/2,3,8/2,4,8/2,5,8/2,2/8,
1/7,5,1/7,4,1/7,3,1/7,7/1,
8/2,4,2b/8b,4b/6b,1b/7b,5b/3b,2/8-4[8:1],8,
2-5[8:1],1,2/6-1[8:1],7,6/4-8[8:1],3,4/7-3[8:1],6,
7/1bv4[8:1],2,1-3[8:1]/5-7[8:1],6,{4}1bw5b[8:1],1b,
{8}7-4[8:1],8,7/3-8[8:1],2,3/5-1[8:1],6,5/2-6[8:1],3,
2/8bv5[8:1],7,8-6[8:1]/4-2[8:1],3,{4}8bw4b[8:1],8b,
{8}5/3x-8[8:1],4,3/7-4[8:1],6,7/1-5[8:1],2,1/6-2[8:1],7,
6/4bv1[8:1],3,4-2[8:1]/8-6[8:1],7,{4}4bw8b[8:1],4b,
{8}2-5[8:1]/6-1[8:1],2/6,{4}2b/6b,{8}3-6[8:1]/7-2[8:1],3/7,{4}3b/7b,
{24}1b,2,3,4,5,6,8b,7,6,5,4,3,8b,1,2,3,4,5,1b,8,7,6,5,4,
{16}3/8,5,8,5,1,6,1,6,2,7,2,7,3,8,3,8,
4,5,6,7,8/4,1,2,3,4/8,5,6,7,8/4,1,2,3,
{8}8/4,{16}8,5,7,4,7,4,6,3,{8}5,{16}1b,6,{8}4,
{4}8b-3b[8:1]*-5b[8:1],8b,{16}4,4,4,4,{32}4,3,2,1,4,5,6,7,
{8}1x-4[8:1],8,1-6[8:1],7,1-3[8:1],8,1,8,
8-5[8:1],4,8-3[8:1],2,8-6[8:1],4,8,2,
1b/7b,1b/7b,2b/6b,2b/6b,8b/1b,8b/1b,3b/7b,3b/7b,
{16}1/8,2,3,4,5/7,8,1,2,3/5,6,7,8,3/1-5[8:1],4,5,6,
{8}7/1-3[8:1],6,8/1-6[8:1],6,8/1-4[8:1],7,1/8-4[8:1],7,
2/8-6[8:1],3,1/8-3[8:1],3,1/8-5[8:1],2,8/1,2,
7/1-3[8:1],6,8/1-6[8:1],6,8/1-4[8:1],7,1/8-4[8:1],7,
2/8-6[8:1],3,8/1-4[8:1],3,1/8-5[8:1],8,1>5[8:1]/8-4[8:1],1,
{4}1/8,8<4[8:1]/3-7[8:1],3/8,8<4[8:1]/1-5[8:1],
8/1,1>5[8:1]/6-2[8:1],6/1,8/6,
{8}1/5-8[8:1],1/5,5/1-4[8:1],1,7/1,7,7-2[8:1]/4-1[8:1],7/4,
{4}7-5[8:1]/4-6[8:1],4-8[8:1]/7-3[8:1],{2}7>5[4:1]/4>6[4:1],
{1}E6f/E7/E5,
C/E8/E4,
E2/E1/E3,
E6/C/E2,
2/E1/E8/E7,
7/E1/E2/E3,
3/E5/E6/E7,
6/E5/E4/E3,
{4}3V15[4:1],6-2b[8:1],6b,5,
6V84[4:1],3,{24}3b,2,1,4b,5,6,3b,2,1,4b,5,6,
{4}7V15[4:1],4-8b[8:1],4b,5,
4V26[4:1],7,{24}7b,8,1,6b,5,4,7b,8,1,6b,5,4,
{4}3V51[4:1],8-4b[8:1],8b,1,
8V62[4:1],3,{24}3b,4,5,2b,1,8,3b,4,5,2b,1,8,
{4}5V73[4:1],2-6b[8:1],2b,3,
2V84[4:1],5,{24}5b,6,7,4b,3,2,5b-8b[8:1],6,7,4b,3,2,
{8}5b/1,3,4-1b[8:1],2,4/8,6,5-8b[8:1],7,
5/1,3,4-1b[8:1],2,4/8,6,5-8b[8:1],7,
5/1,3,4-1b[8:1],2,4/8,6,5-8b[8:1],7,
5/1,3,4-1b[8:1],2,4/8,6,5-8b[8:1],7,
5/4-1b[8:1],2,4/5-8b[8:1],7,5/4-1b[8:1],2,4/5-8b[8:1],7,
5/3-8b[8:1],2,3/6-1b[8:1],7,6/3-8b[8:1],2,3/6,7,
{32}2,3,4,5,8,7,6,5,1,2,3,4,7,6,5,4,2,3,4,5,8,7,6,5,1,2,3,4,7,6,5,4,
1,2,3,4,5,6,7,8,1,2,3,4,5,6,7,8,1,2,3,4,5,6,7,8,1,2,3,4,5,6,7,8,
1x,8x,1x,8x,1x,8x,1x,8x,1x,8x,1x,8x,1x,8x,1x,8x,1x,8x,1x,8x,1x,8x,1x,8x,1x,8x,1x,8x,1x,8x,1x,8x,
1x,8x,1x,8x,1x,8x,1x,8x,1x,8x,1x,8x,1x,8x,1x,8x,1x,8x,1x,8x,1x,8x,1x,8x,1x,8x,1x,8x,1x,8x,{16}1x,
{32}1b/8b-4b[32:3],2/7,3/6,4/5,,,,,2b/8b-5b[8:1],3,4,5,,,,,1b/8b-3b[8:1],2,3,4,,,,,2b/8,3,4,5,,,,,1b/8>3b[32:3],
2/7,3/6,4/5,,,,,{8}8b,{32}7,6,5,4-7[8:1],1,2,3,4,5,6,7,8,4/1>6[8:1]*V36[8:1],,,3,,,,,{4}6/1<4[8:1]*V74[8:1],
1w5[8:1],1b,{32}4b<1[8:1]*V61[8:1],3,2,1,5b,6,7,8,
{4}4>7[8:1]*V27[8:1],4w8[8:1],4b,2h[8:1]/6h[8:1],
{32}6b/2b-5[8:1],3/7,4/8,5/1,,,,,{8}2/6<1[8:1],8,{4}6/2,3h[8:1]/7h[8:1],
{32}3b/7b-1[8:1],6/2,5/1,4/8,,,,,{8}3/7b-5[8:1],{24}2,3,4,{8}7b-1[8:1],{24}2,3,4,{8}7b-5[8:1],{24}2,3,4,
{8}7b-1[8:1],{24}2,3,4,{8}7b-5[8:1],{24}2,3,4,{8}7b-1[8:1],{24}2,3,4,{8}7b,{24}2,3,4,
{32}8,7,6,5,4,3,,,1,2,3,4,5,6,,,8/7,6,5,4,3,2,,,1/2,3,4,5,6,7,,,8b/1b-5b[32:3],
7/2,6/3,5/4,,,,,7b/1b-4b[8:1],6,5,4,,,,,8b/1b-6b[8:1],7,6,5,,,,,7b/1,6,5,4,,,,,8b/1<6b[32:3],
7/2,6/3,5/4,,,,,{8}1b,{32}2,3,4,5-2[8:1],8,7,6,5,4,3,2,1,5/8<3[8:1]*V63[8:1],,,6,,,,,{4}3/8>5[8:1]*V25[8:1],
8w4[8:1],8b,{32}5b>8[8:1]*V38[8:1],6,7,8,4b,3,2,1,
{4}5<2[8:1]*V72[8:1],5w1[8:1],5b,7h[8:1]/3h[8:1],
{32}3b/7b,6/2,5/1,4/8,,,,,{8}3>8[8:1]/7<4[8:1],1,{4}3/7,{8}2/6,2/6b<2[16:3],
,4,{4}4w8[8:1],{2}4b-6-2-8b[4:1],
{4}3b-7b[32:3],1b/3b,{8}2b/6b,4b/8b,,1b/5b,
,3b/7b,,2b/6b,1b/5b,4b/8b,{32}3b/7b,8x/4x,1x/5x,2x/6x,3x/7x,4x,5x,6x,
7x/3x,8x/4x,1x/5x,2x/6x,3x/7x,4x,5x,6x,7x/3x,8x/4x,1x/5x,2x/6x,3x/7x,4x,5x,6x,7x/3x,8x/4x,1x/5x,2x/6x,3x/7x,4x,5x,6x,7x/3x,8x/4x,1x/5x,2x/6x,3x/7x,4x,5x,6x,
7x/3x,8x/4x,1x/5x,2x/6x,3x/7x,4x,5x,6x,7x/3x,8x/4x,1x/5x,2x/6x,3x/7x,4x,5x,6x,7x/3x,8x/4x,1x/5x,2x/6x,3x/7x,4x,5x,6x,7x/3xpp5>1b[16:3],8x/4x,1x/5x,2x/6x,3x/7x,4x,5x,6x,
{8}7/3v5V31[16:3],{32}1,8,7,6,{8}5/3pp5>1b[16:3],{32}1,8,7,6,{8}5/3v5V31[16:3],{32}1,8,7,6,{8}3/5xqq3<7b[16:3],{32}1,8,7,6,
{8}5v3V57[16:3],{32}7,8,1,2,{8}3/5qq3<7b[16:3],{32}7,8,1,2,{8}3/5v3V57[16:3],{32}7,8,1,2,{8}3w7[16:1]*-5-2-6-1-7[16:1],{32}7,8,1,2,
{4}Cf/3-1[16:1]*-8[16:1],{8}3-7[16:1]*-6[16:1],6/5,3-8[8:1]*>8[8:1],4/5,{4}3b/Cf/6bxw2[16:1]*-4-7-3-8-2[16:1],
Cf/6-8[16:1]*-1[16:1],{8}6-2[16:1]*-3[16:1],3/4,6-1[8:1]*<1[8:1],5/4,{4}Cf/2bV46b[8:1]/6bV82b[8:1],
{32}2b<6[8:1]/6b>2[8:1],3b/7b,4b/8b,5b/1b,,,,,2V46b[8:1]/6V82b[8:1],5/1,4/8,3/7,,,,,6b/2b,3b/7b,4b/8b,5b/1b,,,,,7bV53b[8:1]/3bV17b[8:1],2/6,1/5,8/4,,,,,E2f/7b>3[8:1]/3b<7[8:1],
6b/2b,5b/1b,4b/8b,,,,,E8f/7V53b[8:1]/3V17b[8:1],4/8,5/1,6/2,,,,,E6f/7b>3[8:1]/3b<7[8:1],6b/2b,5b/1b,4b/8b,,,,,3/E4f/7b-4b[32:3]*<4b[32:3]*-5b[32:3],4/8,5/1,6/2,,,,,7b/8b-5b[32:3]*<5b[32:3]*-6b[32:3],
6,5,4,{8}2/1/E3,{32}8b/7b-4b[32:3]*<4b[32:3]*-5b[32:3],7,6,5,{8}4/3/E4,{32}7b/8b-5b[32:3]*<5b[32:3]*-6b[32:3],6,5,4/E2,{8}2/1,{32}8b/3/C/2-5b[32:3]*>5b[32:3]*-4b[32:3],7,6,5,,,,,2b/1b-4b[32:3]*>4b[32:3]*-3b[32:3],
3,4,5,{8}7/8/E7,{32}1b/2b-5b[32:3]*>5b[32:3]*-4b[32:3],2,3,4,{8}5/6/E6,{32}2b/1b-4b[32:3]*>4b[32:3]*-3b[32:3],3,4,5/E8,{8}7/8,{32}1b/C,2,3,4,{8}5/6,
{32}4-8[32:3]*V68[32:3]*<8[32:3],5/3,2/6,1/7,{8}8b,{32}5/E7f/E5/E6/E8/4-8[32:3]*V28[32:3]*-1[32:3]*>8[32:3],6,7,8,{8}1/2,{32}3/E5/E4/E3f/E2/4-8[32:3]*V68[32:3]*-7[32:3]*<8[32:3],2,{16}1,{8}8/7,{32}5/4/E7f/E5/E6/E8/4w8[32:3],6,7,8,{8}1/2,
{32}Cf/B4/B8/4-8[32:3]*V28[32:3]*>8[32:3],3/5,6/2,7/1,{8}8b,{32}3/E2f/E4/E3/E1/4-8[32:3]*V68[32:3]*-7[32:3]*<8[32:3],2,1,8,{8}7/6,{32}5/E4/E5/E6f/E7/4-8[32:3]*V28[32:3]*-1[32:3]*>8[32:3],6,{16}7,{8}8/1,{32}3/E2f/E4/E3/E1/4w8[32:3]*<4<4<4<4[2:1],2,1,8,{8}7/6,
{32}1b/Cf/B4/B8`4`6h[2:1],2x,3x,4x,{16}5x,{32}7x,8x,1x`4-2-8-6-4-2-8-6-4-2-8-6-4-2-8-6-4[2:1]`5>5>5>5>5[2:1],2x,3x,4x,{16}5x,{32}7x,8x,{48}1x/4x/2h[2:1]/Cf,3x,,1x,8x,7x,6x,5x,4x,3x,,1x,8x`5<5<5<5<5b[2:1]*-7-1-3-5-7-1-3-5-7-1-3-5-7-1-3-5b[2:1]*<6-8>2-4<5<6-8>2-4<6-8>2-4<6b[2:1]*-8-3-6-1-4-7-2-5-8-3q7-2-5-8q4b[2:1],7x,6x,5x,4x,3x,,1x,8x,7x,6x,5x,
{64}4x/1bx/Cf,{192}2bx,8bh[24:13],,{64}3bx,4bx,5bx,6bx,7bx,8bx,1bx,2bx,3bx,4bx,5bx,6bx,7bx,8bx,1bx`5v6v7v8v1v2v3v4-6-8-2-4v7v2v5v8v2[2:1]*-8-3-6-1-4-7-2-5v8v3v6v1v4v7v2v5b[2:1],2bx,3bx,4bx,5bx,6bx,7bx,8bx,1bx,2bx,3bx,4bx,5bx,6bx,7bx,8bx,8bx/Cf`1V35V71>2-4-6-8-2>3-5-7-1-3[4:1]`3>3>3>3[4:1],7bx,6bx,5bx,4bx,3bx,2bx,1bx,8bx,7bx,6bx,5bx,4bx,3bx,2bx,1bx,8bx,7bx,6bx,5bx,4bx,3bx,2bx,1bx,8bx,7bx,6bx,5bx,4bx,3bx,2bx,1bx,
{2}E6f/E1f/E4f/A7f/D5f/A2f,E8f/E5f/E2f/A6f/D1f/A3f,
{1}Cf/D1/E1/E5/D5/E7/D7/E3/D3,
E
