&title=Sweet & Sour
&artist=Sakuzyo or Sobrem
&first=0
&des=Satie not attieSal
&lv_5=14+
&inote_5=(170)
{4},,,,,,,
{8},
{32},,,43,{8}2x/5xh[8:6],,{2},{8},
{32},,,6`5,{8}4x/7xh[8:6],,{2},{4},
{16}3,4,,6,5,,3,4,,6,5,,3,4,,5,4b,,7,5,,3,4,,7,5,{8}6hx[4:1],4,3,
{4}2h[8:1],2h[8:1],{8}2h[8:1],4x,{4}2h[8:1],{8}2h[8:1],5x,2h[8:1],{16},6x,{4}2h[8:1],2h[8:1],{8}2h[8:1],6x,{4}2h[8:1],{8}2h[8:1],5x,{4}2h[8:1],
{16}24,,5,4,6,5,7,,5,6,4,5,3h[8:1],,,,
{8}24,35,46,57,{16}6h[6:1]/8h[6:1],,,{4}7x/5x,{16},2h[6:1]/4h[6:1],,,{4}3x/5x,{16},6h[6:1]/4h[6:1],,,{16}3x/5x,,,
2,1,{4}2b-6[8:1],2/8b-3[8:1],8b/4h[4:1],,
{12}7,8,6,2,4,3,{4}1v6b[8:1]*-4[8:1],,
{8}7h[8:1],5,7h[8:1],4,7h[8:1],{16},3,{8}7h[8:1],3,7h[8:1],2,7h[8:1],1,7h[8:1],{16},1,
{16}7,6,5,4,8,7,6,5,1,8,7,6,4,3,2,1,7,6,5,4,8,1,2,3,6,5,6,,2,8,2,8,2,8,2,,
{8}57,46,35,24,{16}1h[6:1]/3h[6:1],,,{4}2x/4x,{16},7h[6:1]/5h[6:1],,,{4}4x/6x,{16},3h[6:1]/5h[6:1],,,{16}4x/6x,,,,,
{8}A7,A6,A5,A4,{16}3xh[6:1]/1h[6:1],,,2x,{4},
{12}7,5,6,2,1,3,{4}8v3b[8:1]*-5[8:1],,
{8}2b/6b,,2,6,2,5,2,{16}2,4,3,,3,4,2,,2,4,3,,Ch[4:1],,3,,,,
{16}3/E1,,,C,3,,E5,,3,,Ch[4:1],,3,,,,3/E1,,,,3,,E8,,3,,E7,,3,,E6,,
{8}3,7,36,5,3,8,37,6,3,A1,A8/3,A7,3/A6,2/A5,1/A4,8>6[8:3]/A3,7,Ch[8:3],,,,
{16}8,6,7,,2,4,3,,,,{8}56,47,{16}2,4,3,5,4,5,3,,26,,
{24}7x,8x,7x,8x,7x,8x,7x,8x,7x,8x,7x,8x,7x,8x,7x,8x,7x,8x,7x,8x,7x,{16},,
{32}2,3x,4x,,{16},{32}1,2x,3x,,{16},{32}6,5x,4x,,{16},{32}7,6x,5x,,{16},
{24}2x,8x,2x,8x,2x,8x,2x,8x,2x,8x,2x,8x,2x,8x,2x,{16}7,3,6,4,{4}5,
{16},1,7,2,6,3,5,4,6,3,7-4[8:1],,,,,,
{16}2b,1,3,8,2,1,3,8,2,1,3,8,2,1,3,8,3b,4,2,5,3,4,2,5,3,4,2,5,3,4,2,5,
{16}2b,1,2,1,2,1,2,1,2b,3,4,5,2b>6b[4:1]/6x,7,8,1,{4}2x/6b<2b[4:1],2b,{32}D3,D4,D5,D6,D7,D8,D1,D2,{4}D3/Cf,
{8}8x/6x,75,46,35,{16}4h[6:1]/2h[6:1],,,{4}35,{16},{8}75,46,35,24,{16}1h[6:1]/3h[6:1],,,{4}24,{16},{8}46,35,24,13,{16}8h[6:1]/2h[6:1],,,{8}13,{16},
57,,{16}4b,8,4b,8,4b,8,4b,8,4b,8,4b,8,{4}4b,
{8}65,54,34,23,24,35,46,57,58,47,36,25,15,26,37,48,1/5b,{16}6b,2,6b,2,6b,2,5b,1,4b,8,3b,7,2b,6,
{12}1b,5,3,8b,5,7,{4}1bv6[8:1]*v4[8:1],,
{8}2/8h[4:2],,2,,2,,2,8,2,,2,8,28,{16},7,2,,6,,{8}2/5h[4:2],,2,,2,,2,,2,,2,5,{12}2/4h,5h,6h,{32}7h/2,,,8h,,,1h,,{8}2,,2,{16}8,7,26,,,6,2,,5,,{8}24,,2,,{12}2/4h,5h,6h,{32}7h/2,,,8h,,,1h,,{8}2,,2h[8:1],{32}B8,B7,B6,,{8}2h[8:1],,2h[8:1],{32}E8,E7,E6,,
{8}2,2,2,2,25,26,2-6[8:1]/7,28,2b/1,
{16}7,8,,1,8,2,8,3,1,2,4,3,5,4,6,4,5,3,5,4,5,3,6,4,5,3,6,4,5,3b,,,2b/1b`3bx,,,,
{16}7,5,6,4,5,3,4,2,4,3,5,3,6,4,5,4,{24}6x,5,6,4x,5,4,{16}6,5,7,5,6,4b,,,1b/7b`6bx/8bx,,,,
{16}2,4,3,4,3,5,4,5,3,5,4,6,5,6,4,7,5,6,4,5,3,4,2,5,1b-5b[8:1],,,,1b-7-2-5[8:9]/6h[4:2]`Cf,,{4},,{8},A5f/D6/D5/E6/E5,,,,,,{16}7,5x,7,,1b/8b,,{24}2,6,2,6,2,6,2,6,2,6,2,6,2,6,2,6,2,6,{4}2,
{16}7b/4,,6,5,7b,5,6,5,{24}7bx,6,7,{16}5,,6,{24}4,5,4,5,{48},{16}3bx,,2,4,2,4,1b,,2x,4,3,5,2b,6,2b,7,2b,6,3,5,4x,6,3b,5,4x,,5,6,4,5,3,4,2b,,5,3,6,4,7b,,18,,18,,2h[8:1]/7h[8:1],,,,3b,6,4,5,2b,6,4,5,1b-5[8:1],6,4,5,{4}1b,
{8}5bx/8bx,47,36,25,{16}1h[6:1]/4h[6:1],,,{32}25,36,{4},{16}7bh[6:1]/5h[6:1],,,{4}46,{16},3bh[6:1]/5h[6:1],,,{16}46,,,7,8,7b-3[8:1],,,,2-5[8:1]/7,,1,8,2,,7,8,6h[8:1],,1,8,2bh[8:1],,7,5,6bh[8:1],,3,4,2bh[8:1],,7,8,7,8,6,,
{8}1b/4b,25,36,47,{16}5h[6:1]/8h[6:1],,,{32}47,36,{4},{16}2h[6:1]/4h[6:1],,,{4}35,{16},6h[6:1]/4h[6:1],,,{16}35,,,,,
{16}E7,B6,B4,E4,E6,B5,B3,E3,Ch[16:3],,,,{4},
{12}1,3,2,7,5,6,{4}8z4[8:1]*v6[8:1],,
{8}4x/6xh[16:27],3,2,1,{16}8h[6:1],,,A1,{4},{16}2h[6:1],,,A1,{4},{16}8h[6:1],,,A1,{4},
{8}5/3h[16:27],6,7,8,{16}1h[6:1],,,A8,{4},{16}7h[6:1],,,A8,{4},{16}1h[6:1],,,A8,{4},
{8}47,6,52,1,{16}4-7[10:1]/8,,,3,{4},{16}5-2[10:1]/1,,,6,{4},{16}8-3[10:1]/4,,,7,{4},{16}1-6[10:1]/5,,,2,{4},{16}1-4[10:1]/5-8[10:1],,,15,,,,,
{16}3,7,3,7,2,8,2,8,1,1,1,1,{4}2b/8b,
{8}1b/4b,25,36,47,{16}5h[6:1]/8h[6:1],,,{32}47,36,{4},{16}2h[6:1]/5bh[6:1],,,{32}36,47,{4},{16}2bh[6:1]/5h[6:1],,,{32}36,47,{8},
{16}8,1,7bh[8:1],,2,4,3bh[8:1],,7,5,{4}8bw4b[8:1],8b,{12}1,5,3,8,4,6,{4}1s5[8:1]*v3[8:1],,
{8}6h[8:1],,6h[8:1],E1,6h[8:1],E2,6h[8:1],E3,6h[8:1],E4,6h[8:1],E5,6h[8:1],Ch[8:1],6h[8:1],,
{8}2h[8:1],,2h[8:1],E1,2h[8:1],E8,2h[8:1],E7,2h[8:1],E6,2h[8:1],E5,2h[8:1],{32}D6,A6,D7,,{8}2h[8:1],8,
{16}2b,,3,4,,6,5,,3,4,1,6,5,8,2,4,3,7,5,6,3b,4,2,2,6b,5,7,7,3b,,
{16}2,1,2-4[10:1],,{24}7,6,5,{16}2-6b[8:1],,{24}5,6,7,{16}2-8[10:1],,8-4[10:1],,2,,,,
{16}7-1[8:1],,{24}4x,3,2,{16}7-3b[8:1],,{24}2,3,4,{16}7<5[10:1],,5-1[10:1],,7,,,,
{4}2>2[4:2],B6/B5/E6,2>6-8-2[4:5],{16}6h[16:1],,,,{4},,,,4<6-8[4:2],,,{16}4x,,{32}4,3,2,1,{12}8b,5b,3b,1b-5b[8:1],4b,6b,1b`Cf/B1/B5,
