&title=magnet -recall-
&artist=湊 貴大(流星P).feat 初音ミク、巡音ルカ
&first=-0.03
&des=タンザナイト
&lv_5=13+
&inote_5=(108){4},{16},,,,,,,,,,,,,,,,6,
5,4,3h[16:3],,,6,5,4,3<6[8:1],,,,,,,3,
4,5,6h[16:3],,,3,4,5,6>3[8:1],,,,,,,2,
1,8,7,,,6,5,4,3h[#0.9722223],,,,,,,(216){4}6,
{8},7/2-6[8:1],,2/8-4[8:1],
,8/1,,3,3,5,5,{16}3,4,
5,6,7,8,{4}1h[1:1]/Cf,7,{8}5,5,
,7,{4}7,{8},7,8-4[4:1],7,
{2}8,{4}2/8h[1:1],{8}4,4,
,2,{4}2,4h[2:1],{16}1,8,7,6,
{2}5h[2:1],{4}3,{8}2/4,2/4,
,3/5,,3/5,,6/4,,6-2[0.4167##0.2778],
(108),6b/4b-8[8:1],,4b/7b<4[8:1],,7b/1b-5[0.5556##0.2778],,1b/6b,
(216){4},{8}6,5,6,5,3,4,
3,4,{4}3h[4:3],{16}4,5,6,7h[16:7],,,,,,,,,{8}3,
7,3,7,2,6,
2,6,1,5,{16}1,2,3,4,5,6,7,8h[16:25],
,,,,{4}7,{16}7,6,5,4h[16:13],,,,,,,,,,,,,,1/5,
2/6,3/7,{4}4/8,
{8},,6b,3,4,3,7b,3,
4,3,6b,3,4,3,{4}7/2,
(108){8},8<3[16:7],{16}2,2h[4:1],,,,,,4,,5,{8}5h[#0.5555553],
,6-4-8[16:5],4,6/5,{16},3,,2,{4}2h[8:3],
{8},8>3[16:3],{16}7,7,,6,,5,,4<7[16:3],,3,{8}3,
2,1,{16}8,8V64v2[16:7],,1/7,,8h[16:9],,,,,,,,,{8}4,
{16}5,6h[16:9],,,,4,{8}3,{16},1,{8}2>6[4:1],
5,6<2[16:3],{16}2,2>6<8[16:7],,,,6h[16:7],,,,,,,,,{8}1/6,
{16}7h[4:1],8h[4:1],,,,6h[16:5],{8}1,,2-6[8:1],
3,2/1>4[8:1],,8/1<6[8:1],,1/4-8[8:1],{16},5,{8}4,
,3<6[8:1]/7>2[8:1],,3/7,{16},3/7,{8}3/7h[4:1],,5h[8:1],
4h[4:1],2h[16:3],{48},5x,6x,7x-3[8:1],,,,,,{16}3<1[16:5],,4h[16:5],,,,,,,4,
3,{8}2/1h[4:1],,2h[4:1],,3h[4:1],,4h[4:1],
,5pp5qq5[8:5],{16},5,{8}5h[4:3],,,,,,7-5[8:1],
,7/8-4[8:1],,8/1-3[8:1],2h[24:7],1,
{48},,,4x,5x,6x,{8}7x,{16}7-4[16:3],3-8[8:1],,,7,3,,,{8}1/5,2/6,
7/3>6[8:3],8b/4bh[8:5],,,,,5,6pp4[8:3]`3qq5b[8:3],
2/7,3b/6b,,,,6b/3b,{16}8b/1b,,,2,
1,2,{48}1b,8,7,6<4[16:5],{24}5h[48:35],{4},,{16},6,7,8,
,6/1,,7/8<3[16:5],,4/5,,8/1h[2:1],,,,,,2x,8x,7x,
,7h[16:5],,2,,,{8}1,{48}8bq3[8:3],7/1,6/2,5/3,{12}4,{24},,{8}8/4,3>6[4:1],
2,1bh[8:3],{16},,,,,5,5,2,2,{48}6x,5x,4x,3x,2x,1x,8x,7x,6x,
{8}5xh[16:7],Cf,{16}8,8>3[16:3],,7,,8/6h[8:3],,,,4x,5x,7x,
,8V63[8:3],,4V27[4:1],,8,,4,,,,,,8/4,1/5,2/6,
,7h[8:1],,6h[8:1],,5h[6:1],{48},,,,,,4b/6b,3/7,2/8,1h[16:7],,,,,,,,,{8}7,6,
5-1[4:1],5bh[2:1],{16},,,,,,2,2,6,6,{48}2x,3x,4x,7x,6x,5x,
1x,2x,3x,8x,7x,6x,{8}Cf,{16}7,7q4[16:3],,5/6,,7h[8:3],,,,5,6,8,
,1-5[8:1],,7-3[8:1],,1<6[8:1],,7,,1,,,,5,4,3h[16:3],
,,{8}1h[48:17],{16},5h[6:1],{48},,,,,,4b/8b,3x/7x,2x/6x,5x/1x>5[16:5],,,,,,,,,,,,,,,{8}5<1[4:1],
,7bh[8:3],{16},,,,,,1,1,6,6,{48}1x,2x,3x,5x,6x,7x,
2x,3x,4x,6x,7x,8x,{8}Cf,{16}2,2p5[16:3],,4/3,,2h[8:3],,,,4,3,1,
,8-4[8:1],,1<3[16:5],,8,,1,,,,,,5h[2:1],2,1,
,8-6[48:5],,,,8,{48},,,,,,6b,7x,8x,1x,2x,3x,{8}5x/4xV68[4:1],,8V24[4:1],
,5bh[4:1],{16},,,,6,6,2,2,{48}8,7,6,5,4,3,2,1,8,7,6,5,
{8}4/8,5/1,{16}6/2,2bqq7[16:23]/6bqq3[16:23],{1},{4},,,{8},3/6,
{16}5,5,,2/4-8[8:1],,3/5,,4/6,,7,
{8}7,6b/8b<5[8:1],,2b/8b>3[8:1],,8b/4bw8[8:1],,4b,
{16},,2,1,2,1,7,8,7,8h[16:7],{32},,,,7,6,5,4h[32:7],,,,,,,,,{16}8,
4,1,5,2,6,3,7,4,8,{32}4,3,2,1,8,7,6,5h[32:25],
,,,,{8}6,{32}6,7,8,1h[32:13],,,,,,,,,,,,,,4/8,3/7,2/6,{8}1/5,
{16},,2b,6,5,6,1b,5,4,5,2b,6,5,6,1b,5,
4,5,4,3,2,1h[8:3],,,5,6,7,8v7-5v4-2v1[16:21],
E
