&title=maboroshi
&artist=camellia
&first=0
&lv_6=14
&des_6=233ski
&inote_6=
(190){4},{1},,,{4},,,{8}5,
5,5,B6,,,4,4,
4,5h[8:5],,,,,,,2,
3,4,5,,,4,5,
6,7xh[16:1],,,,,,,2,
4,2,4h[8:3],,,5,6,
7,8xh[8:3],,,,,,,4,
4,4,C,{16},,2,3,{8}4,6,
7,8p4[4:1],,,,3b,,6-2[4:1],
{16}1,2,{8}3,,,4,5,4,5h[4:1],
{4}6,{16}8x,7,6,5,{2}4,
{16}5-1[4:1],6,5,6,{4}5h[2:1],{8},,,4h[8:1],
{16},5,4,6,4,7,4,8,4,8,4,1,2,3,4,5,
{4}6xh[4:1]/7xh[4:1],{8},,,,4/5,3/6,
{1}1h[8:3]/8h[8:3],
{24}1x,2x,3x,4xh[4:1]/5xh[4:1],,,,,,,,,,,,,,,{8}1/2,7/8,
{16}3,6,4,5,3,6,4,5,4,3,2,1,8,7,6,5,
{4}4h[8:3],{8},,,,1/8,8/1,
{4}5xh[8:3]/4bxh[8:3],{16},,,,,,,,4/8-4[4:1],5,6,7,
{4}8h[2:1],{16},,,,,,,,E8,B8,B1,E2,
B2,B3,E4,B4,B5,E6,B6,B7,C,B2,B1,B8,{4}8xh[4:1],
{8}5x,2,4/5,7,3/4,1,6/5,8,
3/4,1,5/6,8,4/5,1,4/5,8,
5/6,8,4/3,2,5/6,2h[16:1],5/6,2h[16:1],
5,{24}4x,5x,4x,5x,4x,5x,4x,5x,4x,5x,4x,5,6,7,8,{16}1,2,3,4,
{48}5h[8:3],{4},,,{16},{48},5,{8}C,
{16},,,,,,,,,,5,5,{4}5<5[2:1],
{16},,A8,A1,{48},,,,,,,,,,,,A5,,,,,,,,,,,,,,,,,8,{16}C,B7,
B6,B5,B4,B3,{4}8xh[4:3],,,7-4[4:1],
{16}7,8,{8}1,,,{4}Ch[8:1],
{24},,,,,,,,,,,,,,,,5,C,{48},,,,,,,,,,,,{16}1,
1,{8}1,,,{4}4/5<8[8:1],5,
{16}1x,2,3,4,1x,2,3,4,5x/1x,2,3,4,5x,6,7,8,
1x,2,{8}7h[4:1]/3<6[4:1],{4},,,{64}3x,
B3,{4},,{16},{32},{8}4/5,{24},,,,,,8/1,
7/2,{12}6/3,{24},,,,,,,,{8}Ch[16:1],,,8b,
{16},,,,5,4,3,2,1/8,7,6,5,{4}4>1[4:1],
{16},,,,,,5x,5,{4}5,{16}4,5h[16:13],,,,,,,,,,,,,,,,,,,4,
5,{8}4,{16},,6,5,{4}6,{8}3/4,5,
{4}4/8,{24}7x,6,5,3x,2,1,7x,6,5,3x,2,1,8,7,6,5x/4x,,,4x,
5x,4,5,,,{8}3/6,{24}7h[12:1],2h[12:1],,,,,{8}2,3,4/5,
7,5/4,2h[4:1],6,,,{4}3<7[2:1],
{16}2x,2x,2x,2x,{4}2x,,5x-8[4:1],
{8}4,4,4,4,4,5,6,7,
{24}8x,7,8,7,,,{8}5/4,{24}2x,1,2,{4}1,{8}4/8-4[4:3],5,
3,3,3,3,{2}3h[4:1],
{16}1,8,1,8,1,8,1,8,2,7,3,6,4,5,4,6,
3,7,2,8,1,8,2,7,3,6,{8}4h[8:1],{24},,,4,6,4,
{8}6,2/7,{24}3x,5x,3,5,3,5,{4}3,{8}2/4,7,
5/3,1,4/6,8,{16}7/4h[4:1],,,,,2p3[2:3],,,,,,,8,
7,8,7,8,6,8,6,8,5,8,5,
8,5,8,7,6,5xh[16:7],,,,,,,,,,,{8}3/7,
{24}4,6,4,{8}6,2/7,{24}1,8,1,8,,,{8}4h[4:1],5v3[8:3],
{16},,5,6,7,8,{8}1h[4:1],,,{4}5/1,
{12}8xh[24:1],8xh[24:1],{24},,{8}2/7,{16}1x,1x,{8}1x,3/4,4/5,3,
5/6,2,7/6,1,7/8,8,{4}1h[4:1]/2-6[4:27],
{1},,,{4},{16}E7,
E8,E1,E2,E3,E4,E5,B5,{12}B6,B7,B8,
B1,B2,B3,C,{24},{8}C,{2}C,
{4},,,{16},,{24}C,B8,B1,
,,,,,,,,,,,,,,,,,,{4}4xh[8:7],
{8},,,,,,,,5,
5,5,5x/C,,,4x,4x,
4x,4xh[8:3]/C,,,,,,,3,
3,3,3/C,,,2,2,
2,{56}2h[8:5],C,{4},,{16},,,{64},{448},,,,,{16}4,5,
{8}4,4,4h,4h/C,,,6,6,
6,6/B6,{16},,,,,,,,,,4,5,
{8}4,4,4,{64}4,B4,,,,,,,,,,,,,,,,,,,{32}2,3,{8}4,5,
3,2h[8:3],,,{4}5-1[8:1],5b,
{8}4h[4:1],,,4,,,4x/5,4/5x,
{1}4xh[8:3]/5xh[8:3],
{8}1s5[8:1],1,1,8,,,8,8,
7,6,{16}5,6,5,6,4,5,3,4,3,4,3,4,
{8}3xh[4:1],,,3,,,4/6h[4:1],4,
4,5/3h[8:3],5,5,{2}5x,
{8}3xh,4h,5h,6bh,,,3,3,
6,6,{16}4,5,4,5,4,5,3,6,4,5,3,6,
4,5w1[16:11],,,,,,,,,,,,,,,,,,,4,
8,4,8,4,8,4,8,4,7,4,6,
4,5,4,5,4,5,4,5,3,5,2,5,1,5,1,5,
1,2,3,4,5,6,7,8,{4}1b/5x-2[8:1],5x/1x-6b[8:1],
1bx,{16}1x,2,3,4,1,2,3,4,5,6,7,8,
1x,6,7,8,1,2,3,4,5/1x,2,3,4,5/1x,2,3,4,
5x,6,7,8,1/5,4,3,2,1x,8,7,6,{4}5>2[8:7],
{8}5,5,6,6,7,7,8,{16}8,7,
{4}6h[8:1],{16}3,4,3,4,{4}3-7[4:1],3h[8:1]/7V51[2:1],
,1V36[4:1],{8}7,7,8,8h[8:3],
6h[4:1],{16},,,,8,7,6,5,4,3,2,1,8,7,
{4}6h[2:1],{16}4,3,2,1,{4}8b,1b/5v4[8:1],
{16},,,,1,6/2,3/7,4/8,{4}5h[8:1]/1h[8:1],1b/5b,
{8}2-6[8:1]/6-2[8:1],4,{4}2/6,{8}7<6-3[8:1],3,{4}7/1<8-5b[8:1],
{8}1x/5x,7,4/1-7-2[8:1],6,{4}1x/4x,5h[4:1],
{24}2,3,4,5b,,,{4}8h[4:1],{16}4,3,{8}2,{4}7b,
{8}7-4b[8:1],4V61[4:1],{4}7,{8},,2h[8:1],3h[8:1],
4h[8:1],5h[8:1],{4}8-6[8:1],{24}6x/B6,C,B2,2xh[8:1],,,,,,,,,{8}2/4,
3x,2/4,{16}5,6,7x,8,1,2,3x,4,5,6,
7x/3x,4/8,5/1,2,3,4,5,6,{4}7x-3[8:1]/3x-7b[8:1],7b/3b,
{8}5,{16}2x,6,2,6,{8}2,3/4,{16}1x,5,1,5,{8}1,
5/6,{16}3x,7,3x,7,{8}3,4/5,{16}6x,8,6x,8,{8}6,
3/4,{16}1x,2x,3,4,{8}5,8b,{16}5x,4x,3,2,{8}1,
3/7,{16}1x,1,1,1,{8}1,5/4,{16}6x,5,6,7,{8}6,
1b/8b,{16}3,4,3x,2,{8}3,5,{16}4,5,{8}4,{16}6,5,
{8}6,{16}2,1,{8}2,{16}7x,8<4[8:1],7,8,7,8,,,3bx,2,
1,8,7,6,5,4,3,2,5,4,3,2,1x/5x,4,3,2,
1x/5x,4,3,2,1x/5x,4/8,3/7,2/6,{4}5h[8:1]/1h[8:1],5b/1b,
{24}3,4,3,4,,,{8}2/7,{24}3,5,3,{8}5x,7h[16:1],6,4/3-8[8:1],
2/5,3/4,5,6,7,8,1/3,3/5,
{24}2,5,2,5,,,{8}3/6,{24}4,7,4,{8}7,2/6,3/5,{16}4,5,
3,6,2,7,1,8,2,7,3,6,4,5,{8}4,{16}6,4,
{8}3bx/7bx,{24}2,8,2,{8}8,3bx/7bx,{24}4,6,4,6,,,{8}2/7-5[8:1],4,
7/3x,2x,3/6x,7xh[16:1],2b,4h[8:1]/5h[8:1],{16},6h,7h,8h,
{8}1h/5xh,{16}3x,3,{8}3,2/4x,{16}3x,3,{8}3,1/5,3,
7/5,4/2,1/6,2/4,{16}1/5x,2,3,4,{24}5xh,6,7,8,1,2,
{32}3xh,4,5,6,{8}7b-3b[8:61],{1},,,,,,{4},,,{16}B7,
B8,B1,B2,B3,B4,B5,B6,B7,B8,B1,B2,B3,B4,{8}C,
,8x,8,8,{4}8,{8}7x,7,
7,7,,,,,{4}C,
{8}6,6,6,6,,,5,5,
5,{64}5,B4,{4},,,{16},{32},{8}4,
4,4,4,,,5,5,
5,5,{4},,,{32}2,
3,{16}4h[16:7],{4},,{16},,{32}2x,3,4,5,{8}6h[8:17],
E
