&title=GALACTIC WARZONE
&artist=Akira Complex
&first=0
&ChartEditor=MaiCreator
&lv_5=14
&des_5=FIGHT!!!
&inote_5=(174){1}Cf,
{2}2h[2:1],4h[8:13],
{8}B1/E1,,,B7/E7,,,B3/E4,,,
B1/B8/E1,,,2/A6,3/A7,{4}4/A8,
{1}4h[4:11]/8qq3[2:3],,
{8}B3/E3,,,B6/E7,,,{4}B1/B8/E1,
{6}2h[6:1],4h[6:1],3h[6:1],7h[6:1],5h[6:1],6h[6:1],
{4}8b-5[8:1],{8}1,{4}1,{16}3,3,{4}5,
{8}4/6,6,4/7,{4}7,{16}2,2,{4}8,
2/1-4[8:1],{8}8,{4}8,{16}6,6,{4}4,
{8}3/5,3,2/5,{4}2,{16}7,7,{4}1,
7/8-4[8:1],{8}2,{4}2,{16}3,3,{4}1,
2/1-5[8:1],{8}7,{4}7,{16}6,6,{4}5,
4h[2:1]/8h[2:1],,,{8}8b,8b,
{2}3bh[2:1],{48}7bh[2:1],,,,,,,,,,,,,,,,,,,,,,,,,
6bxs2>7b[32:47]/8bxz4>8b[32:47],1bx/5bx,2bx/4bx,{12}A3f,,,,,,,,,,,,,,,,,,,,,,,
{4}3h[4:1],{8}8,4/7,{16}6,{8}5,{16}5,{4}6,
{8}3/8,2,1,{16}7-3-7[4:1],{8}8,{16}8,{8}7,,,
{4}4h[4:1],{16}1V74[4:1],1,,,2,2h[16:5],,,,,,,
{4}4h[4:1],{16}2V47[4:1],2,,,8,8h[16:5],,,,,,,
6,8,5,8,4,8,3,8,{32}2x,3x,4x,5x,6x,7x,{16}8x,{32}1x,2x,3x,4x,5x,6x,7x,8xz4[32:17],
{1}1xs5b[2:1],
{4}1b-6[8:1]/7b-1[8:1],{8}7/1>6[4:1],,,2x,{4}2x,
1-6[8:1]/6-8[8:1],{8}6/1>6[4:1],,,2x,2x,{16}7x,7x,
6x-1[8:1],,,,,,,3h[2:1],,,{8}7,{16}1,,,4h[2:1],,,
{8}7,{16}1,,,5h[16:5],,,{8}7,{4}1,
8-3[8:1]/2-8[8:1],{8}2/8<3[4:1],,,7x,{4}7x,
8-3[8:1]/3-1[8:1],{8}3/8<3[4:1],,,7x,7x,{16}2x,2x,
{4}1x/3x,{8}4b/8b,{4}5/6,{8}1b/5b,3/4,{24}2,3,4,
{16}5/1h[16:3],,,3h[16:3],,,4h[16:3],,,8h[16:3],,,{8}7,6,
{4}5-7[8:1]/8-5[8:1],{8}5/8v3<6[4:1],,,2x,{4}2x,
8-5[8:1]/6-8[8:1],{8}6/8v3<6[4:1],,,2x,2x,{16}7x,7x,
6x-1[8:1],,,,,,,3h[2:1],,,{8}7,{16}1,,,4h[2:1],,,
{8}7,{16}1,,,5h[16:5],,,{8}7,{4}1,
4-1[8:1]/1-4[8:1],{8}1v6>3[4:1],,,7x,{4}7x,
1-4[8:1]/4-1[8:1],{8}1v6>3[4:1],,,7x,7x,{16}2x,2x,
{4}1x/3x,{8}4b/8b,{4}5/6,{8}1b/5b,3/4,{24}2,3,4,
{16}5/1h[16:3],,,3h[16:3],,,4h[16:3],,,8h[16:3],,,{8}7,6,
{1}2h[4:15]/5s1[16:9],
5s1[16:9],
5bs1[16:9],
5s1[16:9],
{2}7bxh[4:1]/8bx>3[8:1],5bxh[4:1]/4bx-8[8:1],
2bxh[4:1]/1bx<6[8:1],4bxh[4:1]/5bx-1[8:1],
{8}2bx/8bx,3,4bx/6bx,7,1bx/8bx,2,3bx/5bx,7,
{16}2,8,2,8,1,1,1,1s5b[16:3],{2}1v3[8:1],
{16}1b-3[8:1],,,4,{8}1<7[8:1],6,{16}1-4[8:1],,,5,{8}1-6[8:1],7,
{16}1-3<4[8:1],,,5,{8}1v6[8:1],7,{4}1,{16}7,7,{8}5,
{16}8b-6[8:1],,,5,{8}8>2[8:1],3,{16}8-5[8:1],,,4,{8}8-3[8:1],2,
{16}8,,,4,{32}8-4[8:1],7x,{16}6x,,,{8}4/8,2,{24}3,5,3,{8}5,
{16}1b>3[8:1],,,4,{8}1v6[8:1],6,{16}1-3<4[8:1],,,5,{8}1-6[8:1],{16}7,7,
1>4[8:1],,,5,{8}1-5[8:1],8,{4}1,{16}6,6,{8}4,
{4}3/7,{8}2b/8b,{4}5/6,{8}1b/7b,3/4,{24}2,3,4,
{16}5/1h[8:1],,,7h[8:1]/6h[8:1],,,8h[8:1]/3h[8:1],,,5h[8:1]/4h[8:1],,,{8}3/6,2/7,
{16}8/1b-4[8:1],,,5,{8}1<6[8:1],7,{16}5/1-3<4[8:1],,,4,{8}1<7[8:1],6,
{16}5/1-3[8:1],,,4,{8}1v6[8:1],7,{4}1/5,{16}7,7,{8}7,
{16}8b-5[8:1],,,4,{8}8>2[8:1],2,{16}4/8-6>5[8:1],,,4,{8}8,{32}1,2,3,4,
{16}6,6,{8}5,{16}8,8,{8}2,{16}7,8,{8}7,1/6,2/5,
{16}3h[8:1]/4h[8:1],,,2h[8:1]/3h[8:1],,,{8}1/2,{16}7,8,7,8,,,,,
5h[8:1]/4h[8:1],,,3h[8:1]/2h[8:1],,,{8}1/8,{32}8,7,6,5,{8}3/4,,,
3/7,7,2b/8b,{4}5/6,{8}1b/7b,3/4,{24}2,3,4,
{16}5/1h[8:1],,,7h[8:1]/6h[8:1],,,8h[8:1]/3h[8:1],,,5h[8:1]/4h[8:1],,,{8}3/6,2/7,
{1}1bh[4:7],,
{128}D2/D6,,,D3,D7,,,D4,{16}D8,,,,,{128}E4/E8,,,E3,E7,,,E2,{16}E6,,,,,{128}D2/D6,,,D3,D7,,,D4,{16}D8,,,,,
{128}E4/E8,,,E3,E7,,,E2,{16}E6,,,,,{8}2/A6,3/A7,{4}4/A8,
{1}7bh[4:7]/3bh[4:7],,
{128}D2/D6,,,D3,D7,,,D4,{16}D8,,,,,{128}E4/E8,,,E3,E7,,,E2,{16}E6,,,,,{128}D2/D6,,,D3,D7,,,D4,{16}D8,,,
{6}2/6,3/4,5/7,2/6,7/8,3/5,
{8}1h[4:1],{16}7,{8}7,{16}8,{8}7,1h[4:1],{16}7,{8}7,{16}8,{8}7,
2h[4:1],{16}4,{8}4,{16}3,{8}5,6h[4:1],{16}4,{8}4,{16}5,{8}3,
8h[4:1],{16}2,{8}2,{16}1,{8}2,8h[4:1],{16}2,{8}2,{16}1,{8}2,
7h[4:1],{16}5,{8}5,{16}6,{8}4,3h[4:1],{16}5,{8}5,{16}4,{8}6,
7b/8,8,1/6,1,2/5,2,3/4,3,
1/2b,1,3/8,8,4/7,7,5/6,6,
{16}2b,1,3,8,4,7,5,6,8,7,1,6,2,5,3,4,
{32}2,3,4,5,6,7,8,1,2,3,4,5,6,7,{16}8,{4}1/5w1[8:1],5bx,
{32}2,3,{16}4,7v4[8:1],{8}7,{16}5,{8}7,{32}1,2,{16}3,5<8[8:1],{8}5,{16}4,{8}5,
{32}2,3,{16}4,1<6[8:1],{8}1,{16}5,{8}1,2h[8:3],{32}5x,4x,{16}3x,{32}1x,8x,7x,6x,{8}5x,
{32}2,3,{16}4,8-4[8:1],{8}8,{16}5,{8}8,{32}1,2,{16}3,5v8[8:1],{8}5,{16}4,{8}5,
{32}2,3,{16}4,1<7-5[8:1],{8}1,{16}5,{8}1,{32}3,2,1,8,7,6,5,4,3,2,1,8,,,,,
7,6,{16}5,2v5[8:1],{8}2,{16}4,{8}2,{32}8,7,{16}6,4>1[8:1],{8}4,{16}5,{8}4,
{32}7,6,{16}5,8>3[8:1],{8}8,{16}4,{8}8,7h[8:3],{32}4x,5x,{16}6x,{32}8x,1x,2x,3x,{8}4x,
{32}7,6,{16}5,1-5[8:1],{8}1,{16}4,{8}1,{32}8,7,{16}6,4v1[8:1],{8}4,{16}5,{8}4,
{16}7h[8:1],,,3h[8:1]/4h[8:1],,,{8}1/5,{16}7h[8:1]/8h[8:1],,,4h[8:1]/5h[8:1],,,{8}2/6,
7/1<6[8:1],8,3/1-4[8:1],2,7/1v6[8:1],8,3/1-3<4[8:1],2,
7/1-6[8:1],8,3/1v4[8:1],2,1/7,8,{16}3,5,3,5,
{8}4<7[8:1],5,2/4-1[8:1],3,6/4v7[8:1],5,2/4-2<1[8:1],3,
6/4-7[8:1],5,2/4v1[8:1],3,4/6,5,{16}2,8,2,8,
{8}1<6[8:1],8,3/1-4[8:1],2,7/1v6[8:1],8,3/1-3<4[8:1],2,
7/1-6[8:1],8,3/1v4[8:1],2,1/7,8,{16}3,5,3,5,
{24}1b,8,1,8,1,8,1,8,1,8,1,8,1,8,1,8,1,8,1,8,1,8,1,8,
1,8,1,8,1,8,1,8,1,8,1,8,{32}1w5b[8:1],2,3,4,5,6,7,8,1b/Cf/B3f/B4f/B5f/B6f/B7f,E
