&title=Sqlupp
&artist=owl*tree feat.yaki*tree
&first=-0.76
&des=tmpDaze
&lv_5=14
&inote_5=(183)
{1},
{4}2b,5,{8}3,3,,,
{8}8,1,2,3v1^2-6[8:3],,,,D8/A8/E8,
{8},,{16}5x,4x,{8}3x,,8bx,,,
{8}7v1^8-4[8:3],A6,B5,E3/B3/B2,,,{16}2x,5x,2x,5x,
{8}1h[8:1],6,1h[8:1],6,1h[8:1],7h[4:1],2,2,
{8}8h[8:1],3,8h[8:1],3,8h[8:1],4h[4:1],{16}1,8,7,6,
{8}5/3,5/3,2/6,2/6,{16}1,7,1,7,2z6[16:12],8s4[16:11],2,8,
{8},,,,,,,{48}A3,D3,A2,D2,A1,D1,
{8}8bhx[2:1]/5h[4:1],,,,5,{16}7,1,{8}8-4[8:1],2,
{8}3h[4:1]/8,,,3/5,,4/6,7,1/8,
{8}2h[8:1],{16}7,3,{8}5-8[8:1],2-5[8:1],5>7>3[8:6],2,6,,
{4}6h[8:3],,{8},4/7,{16}8,7,6,5,
{8}4/1h[2:1],,,,5,{16}7,1,{8}8-4[8:1],2,
{8}3h[4:1]/8,,,3/5,,4/6,7,1/8,
{8}2h[8:1],{16}7,3,{8}8-6[8:1],4-2[8:1],8,4,,5,
{16}1,5,1,5,2,6,2,6,3^1[8:1],,7^5[8:1],,3,,7,,
{8}8bh[2:1],,,,6,{16}1,8,{8}2-6[8:1],7,
{8}7h[4:1]/2,,,5,,3/4,2,1/8,
{8}7h[8:3],1b,,2b,6-8[8:1],3-5[8:1],6,3,
{8}1,8,7/4,3,2/6,5,{16}1,2,3,4,
{8}5/8h[2:1],,,,3,{16}8,1,{8}7-3[8:1],2,
{8}2h[4:1]/7,,,1,,2/8,7,6,
{16}2/5,,3,4,3,,2/5,,3,4,3,,2b/5b,,,,
{16}7/4,,6,5,6,,7/4,,6,5,6,,7b/4b,,,,
{16}4/5,,3,6,3,,4/5,,3,6,3,,4b/5b,,,,
{16}8/1,,7,2,7,,8/1,,7,2,7,,8b/1b,,,,
{4}4bqq5[1:1]*>5[1:1]/5b,,,,
{4},,{8},E5,C,E1,
{8}7,2,7,,1,8-4[8:1],2,8,
{8}E2/B2,E6/B6,E4/B4,E8/B8,,,3,2h[8:3],
{8},,6,,5,4-8[8:1],6,4,
{8},E7/B7/B6,E3/B2/B3,E1/B1/B8,,4,3,2h[4:1]/7h[8:3],
{8},,3,,4,5-1[8:1],3,5,
{8}A2/E3,A6/E7,E5/A4,E1/A8,,2,2,2,
{8},E6,E7,E8,E1,E2,E3,E4,
{8}4x/5x,6x/7x,8x/1x,2x/3x,,E5,C,E1,
{8}7/1,2,8/3,7,4-2[8:1],8-6[8:1],4,8,
{8}1-5[8:1],5V38[4:1],1,6h[4:1],,,5,5h[8:3]/1,
{8},,2,,3-8[8:1],7v4[8:1],3,7,
{8},2-5[8:1],5z1[4:1],2,,,,,
{8}8,7,1/6,2,5-7[8:1],3-5[8:1],5,3,
{8}8-4[8:1],4V61[4:1],8,3h[4:1],,,4,4h[8:3],
{8},5,6,7,8/1,2/7,3/6,4/5,
{8}2/3,8/1,7/6,4h[4:1]/5h[4:1],,{24},3/6,2/7,{8}1b/8b,,
{8}8-4[8:1]/2-4[8:1],,8-6[8:1]/2,,8-2[8:1],5,8V64[4:1],,
{8}3<8[4:1],,1V75[4:1],,2h[4:1],,,,
{8}1-5[8:1]/7-5[8:1],,1-3[8:1]/7,,1-7[8:1],4,1V35[4:1],,
{8}6>1[4:1],7,8-2v3-5[8:3],7,6,,,,
{8}7-4[8:1]/2^4[8:1],,7^1[8:1]/2,,7-5[8:1],4,7/2V46[4:1],,
{8}7<2[4:1],,1V35[4:1],,8h[4:1],,,,
{8}E4,E7,{16}E2,E5,E3,E1,{8}E4,{16}B7,B6,B5,,A1,,
{8}A6,{16}D3,D4,D5,D6,D7,D8,{8}D1/5x-1[8:1],,B5/C/B1,,
{8}2-5[8:1],3,8-4[8:1]/2,,8-6[8:1]*V24[4:1],2,,,
{8}1<4[4:1],,3V57[4:1],,2h[4:1],,,,
{8}7-4[8:1]/2,6,1-5[8:1]/7,,1-3[8:1]*V75[4:1],7,,,
{8}8>5[4:1],7,6V42[4:1],7,8,C,C,,
{8}1/5,2,3,4/8,7,6,{32}E4,B3,B2,E2,E6,B6,B7,E8,
{8}1,2,3,4/6,7,8,{32}E5,B4,B3,E3,E1,B8,B7,E7,
{8},1/5,8/4,,1/5,8/4,,1/5,
{8}8/4,,1/5,8/4,,1/5,8/4,7/3,
{8},2/6,1/5,,2/6,1/5,{24}8/4,1,2,3,4,5,
{8}8x-6s2V48[4:3]`6x-2[4:1]b,,,,,,,,
{8}3hb[1:1],,,,,,,,
{8},,{48},,,,6,7,{8}8h[4:1],,2h[8:1],6h[8:1],3h[8:1],
{8}8,8,1/7,7,8/2,2,1/7,,
{8}2/6,,2pp4[8:1]/6qq4[8:1],2/6,,,,{16}1,7,
{24}1,2,3,{16}4,,8,2,{24}8,7,6,{16}5,,1,6,{24}1,2,3,{16}4,,
{16}8,3,{24}8,7,6,{16}5,,1,8,{8}2/7,2/7,4/5,4/5,
{8}3-8[8:1],3,6-1[8:1],6,2-5[8:1],2,7-4[8:1],7,
{8}1,1,2h[8:1]/6,6,3/7h[8:1],3,4h[8:3]/8,8h[4:1],
{8},{48},D8/D4,A7/A3,D7/D3,A6/A2,D6/D2,{8}1bhx[4:3]/5bhx[4:3],,,,,,
{8}B1/C/B5,,,{48}A2,D3,A3,D4,A4,D5,{16}A5,,8h[4:1],,,,2h[8:1],,
{8},7,6,5/4,3,2,1/7,6,
{8}2^5[8:1]/5,6,7,8,1^6[8:1],6,5,4,
{24},,,3,2,1,8,,,,,,4,3,2,1,,,,,,5,4,3,
{24}2,,,,,,6,5,4,3,,,,,,7,6,5,4,,,,,,
{24}8x,7,6,5,4,,8x,7,6,5,4,,1x,2,3,4,5,,{32}1x,2,3,4,5,6,7,8,
{8}1bhx[4:1],,,8,6-1[8:1]/2-5[8:1],,,,
{16}3/8,,2,1,2,,3/8,,2,1,2,,3b/8b,,,,
{16}6/1,,7,8,7,,6/1,,7,8,7,,6b/1b,,,,
{16}1/8,,2,7,2,,1/8,,2,7,2,,1b/8b,2x/7x,,,
{16}5/4,,6,3,6,,5/4,,6,3,6,,5b/4b,6x/3x,,,
{4}1bpp8[1:1]*>8[1:1]/8b,,,,
{1},
{8}E2,,E8,B7,B6,E6,,E2,
{8}B1,B8,E8,A7,,,,,
{8}E6,,E4,B3,B2,E2,,E6,
{8}B5,B4,E4,A3,,,,,
{8}E3,,E1,B8,B7,E7,,E3,
{8}B2,B1,E1,B8,B7,,,,
{8}E5/B5/B4,,3,2,1,8,7,6,
{16}4b/5b,,4bw8[8:1]b,5,3,,4bx/Cf/B4/B8/A8/D1/A1/D8/A7,,,,,,,,,,
{8}7/1,{16}1,2,{8}8/3,8,4-2[8:1],8-6[8:1],4,8,
{8}1-5[8:1],5^3-8[4:1],1,8-4[8:1],,,6,6h[8:3],
{8},{16}3,2,{8}1-5[8:1],,1/7-3[8:1],8,1-5[8:1]/7,1,
{8},6^3pp2[2:1],7,8h[2:1],,,,,
{8}8,{16}8,7,{8}1/6,1,5-7[8:1],1-5[8:1],5,1,
{8}8-4[8:1],4^6-2[4:1],8,2-5[8:1],,,1,1h[8:3],
{8},5,6,7,8/1,2/7,3/6,4/5,
{8}2b/3b,8b/1b,7b/6b,4bh[4:1]/5bh[4:1],,{24},3/6,2/7,{8}1b/8b,,
{24}1bV75[4:1],2,3,4,,,{16}1,,2h[4:1],,,,,,4,2,4,2,
{24}5bV31[4:1],6,7,8,,,{16}5,,6h[4:1],,,,,,8,6,8,6,
{32}1b^7-4[4:1]b,2,3,4,5,,,,{16}1,,2h[4:1],,,,,,4,2,4,2,
{32}5b^3-8[4:1]b,6,7,8,1,,,,{16}5,,6h[4:1],,,,,,8,6,8,6,
{1}7bs3z7[4:5]/1bz5s1[4:5],
{1},
{16}2x,2x,6x,6x,{32}8b,1,2,3,4,,,,{16}1x,1x,5x,5x,{32}7b,6,5,4,3,,,,
{32}8,1,2,3,7b,,,,1,2,3,4,7b,,,,2,3,4,5,7b,,,,3x,4,5,6,7,8,1,2,
{1}3b/Cf,
E
