&title=Defection
&artist=TeddyLoid feat. DELTA
&first=-1.13
&des=zirei
&des_5=zirei
&lv_5=14
&inote_5=(160)
{2},
{4},
{16},,,36,
{1}3x>6[4:3]/6x,
{2}5h[2:1],3h[2:1],4<2[4:3],,4h[2:1],8h[2:1],6>8[4:3],,6h[2:1],2h[2:1],4>5[4:3],,4pp1[2:1]*qq7[2:1],,
{8}2h[2:1]/5,,7,7,6-4[8:1],,2v5[4:1]/6,,,,7,7,8v5[4:1],,4,,3,3,6,6h[8:1],2-4[8:1],,27,,
{16}5,4,5,4,6,3,5,4,6h[8:1],,2,1,,7,Cf,,
{8}5h[2:1],,1,1,2-4[8:1],,2/6v1[4:1],,1,,3,3,4v1[4:1],,8,,7<1[8:3],5h[2:1],,,,,E1,E8,E7/Ch[8:3],,,5h[8:3],,,E5,E4,
{2}E3f/E7f/Cf,
{8}45,,6,6h[4:1],4,3,7,6,3,2,5,4,1,1p3>2v5[2:1],8,8h[4:1],,,6,6,7,
{16}4,5,3,,46,,2,2,1,1,3,8,4,7,
{8}5>1[4:1],6,7,6,5<1[4:1],4,3,4,2>5[4:1],1,8,1,8<4[4:1],1,2,1,
{12}8,8,8,4,4,4,1,3,2,7,5,6,
{2}3h[8:3],
{128}1b>5[8:1],5x-1b[8:1],,,
{32},,,,,,,
{4},
{8}3hx[8:3]/7,6,2-4-6[4:1],1,28,8,1-7-5[4:1],1,5,4,3,2,1bpp2[8:1]/5bpp6[8:1],,,,5hx[8:3]/2,3,7-5-3[4:1],8,17,1,8-2-4[4:1],8,4,5,6,7,4b/8b,,A2/B2/B6/A6,,1hx[8:3]/7,8,3>8-4[4:1],4,35,5,6-4p8[4:1],6,7,7,6,5,4b<7[8:1]/8b>3[8:1],,48,,4h[2:1]/8h[8:1],,B2/B3,B5/B6,8-2-5[4:1],,5-1[8:1]*-7[8:1],5,,,8-4[8:1],4-8[8:1],5x<4[4:1],3,5-1b[8:1],,5b`Cf,,
{16}4/8z4[8:9],37,26,15,
{4}4bh[2:1]/8bh[2:1],,,1-5[8:1]/8-4[8:1],18`Cf,
{8}3x-7b[8:1]/6x-2b[8:1],3x/6x,3b/6b,,1/8-4[8:1],3/4-8[8:1],7x-3b[8:1]/8x,5,7,
{16}1,4,2,5,
{8}3,4/6-3[8:1],57,26,,
{16}1w5b[8:1],8,2,,
{8}1b,,8/1-5[8:1],6/5-1[8:1],2x-6b[8:1]/1x,4,2,
{16}8,5,7,4,
{8}6,5/3-6[8:1],42,7-2[8:1]/3,,3v8b[8:1]/7,,3/4h[8:5],,1b,7,2,6,3b/5b,,A1/A8/E2/E1/E8/D1f,,4b/6b,,
{16}1,7,5,6,3,4,2,8,
{4}Cf,,,
{16},,6,6,
{6}5h[6:1],8h[6:1],2h[6:1],4h[6:1],1h[6:1],6,
{8}6-2[4:1],,2pp7[2:1],3h[2:1],,,,,
{16}4,5,4,5,3,4,3,4,
{8}2h[4:1],1,8h[4:1],3,4h[2:1],,5,5,6>3[8:1],,2,
{16}B2,C,
{8}B7,,1-4[8:1],1-6[8:1],,,,
{16}B7,C,
{8}B2/4h[2:1],,8,8,7,3,2pp4[8:1]/5pp7[8:1],,,,1,8,2b/7b,,B3/B6,,4x/5xq6[8:3],,1-4[8:1],1,1,,,
{16}2,2,
{6}3h[6:1],4h[6:1],5h[6:1],6h[6:1],7h[6:1],8h[6:1],
{8}5xq6[8:3],,1,1,
{12}1,
{24}E2,B2,B3,,
{12},
{6}7h[6:1],6h[6:1],5h[6:1],4h[6:1],3h[6:1],2h[6:1],1h[6:1],
{8}4xp3[8:3],,8-5[8:1],8,8,,,
{16}B3/B6,B2/B7,
{4}E2/E8,,45,3pp8[2:1],7h[8:3],,7b,
{8}16,25,3/4<8[4:1],,1,1s5[4:1],,,6-8[8:1],6,3-1[8:1],4,6-8[8:1],5,3-1[8:1],4,5-7[8:1],6,4-2[8:1],3,5-7[8:1],6,4-2[8:1],3,8-4[8:1],8,1-3[8:1]/8,2,8-6[8:1],7,1-3[8:1],2,8,7h[8:1],5h[8:1],
{16}6,4,6,,35,,25,,1,7,2-7[8:1],7,3,,
{8}6-3[8:1]/2,5,1-4[8:1]/6,2,5-8[8:1]/1,6,2-5[8:1]/5,3,2/6-1[8:1],7,4-8[8:1]/6,3,47,7,26,35,
{16}1b,8,
{24}3,4,3,
{16}8b,1,
{24}6,5,6,
{16}1b,8,
{24}3,4,3,
{16}8b,1,
{24}6,5,6,
{4}4h,4h,4h,
{8}4h,
{24}4,5,4,
{8}6b-8-4[4:1],6,B3/E3,B1/E1,3-1-5[4:1],3,B6/E7,B8/E1,7-4[8:1],4-8[8:1],E2/D2,E4/D4,2h[2:1],E8/D8,E7/D7,E6/D6,4-8-6[4:1],4,A1/B1,A3/B3,5-1-3[4:1],5,A8/B8,A6/B6,4-6-1[4:1],4,B2/A2,B4/A4,3h[2:1],B2/B3/E3,B4/B5/E5,B6/B7/E7,1-4[8:1],4-7[8:1],1,C,8-5[8:1],5-2[8:1],8,C,8-3[8:1],3-6[8:1],8,C,2-7[8:1],7-4[8:1],2,C,8,8,17,,4,4,35,2,
{16}6,5,6,5,
{8}8<3[4:1],21,3q6[4:1],,1-5b[1:1],,1bh[2:1],,8,3,7,4,
{32}A1,B1,C,B5,
{8}A5,
{16}6,6,4,7,3,3,5,2,
{24}8,1,8,
{16}2,6,
{24}4,5,4,
{16}6,2,
{8}Cf,,7/8-5b[8:1],4/5-1b[8:1],1-4b[8:1]/8,3,2b,
{16}1x,1,8-4[8:1],2,
{8}7,2-6b[8:1]/8,1,2/7b-3b[8:1],,8bw4b[8:1]/7,,8b,,2/1-4b[8:1],5/4-8b[8:1],8-5b[8:1]/1,6,7b,
{16}8x,8,1-5[8:1],7,
{8}2,7-3b[8:1]/1,8,7/2b-6b[8:1],,1b<5[4:3]/2,,5,5,4,4,3,3,
{16}2,1,8,7,4,6,4,6,4,8,4,8,4,2,4,2,
{32}4x,3,2,1,4x/8x,37,26,15,
{4}4b/8b,,,
{8}6,6,3/5>7[8:5],,,,,,3,3,4<2[8:5]/6,,,,,,4,4,3/5p4[8:5],,,,,,3,3,2>1[8:5]/5,,,,,,5,5,6>7[8:5]/3,,,,,,4-2-8[2:1],4-6-8b[2:1],,,,,,,E1,E2,E3/Ch[8:3],,,4h[8:3],,,E5,E6,
{2}E7f/E3f/Cf,1,
{8}5h[8:3],,,3h[8:3],,,6h[4:1],,4,4-6-1[8:5],,,,,,,,A6,A5,A4,A3,E6,E5,E4,7h[1:1],,,,,,,,4h[8:3],,,6h[8:3],,,3h[4:1],,4,4>5[8:5],,,,E3,B3,B4,
{1}Ch[1:1],
{16}E8,E7,E6,,
{4},
{1},3h[4:7]/C,
