&title=ポーカーフェイス
&artist=少女フラクタル
&first=0
&des=戦慄せよ!悪夢の能面女
&lv_5=14
&des_5=戦慄せよ!悪夢の能面女
&inote_5=
(170){4},,,{16},,,{64},,,5,
{8}4h,6,3,7,{16}1h[16:3],,,2h[16:3],,,{8}3h[8:1],
{4}8<5[16:3],5,4>1[16:3],8,
{8}7h,5,6,4,{16}5h[16:3],,,3h[16:3],,,{8}2h[8:1],
{4}1-3[8:1]*-7[8:1],1,5-8[8:1]*-2[8:1],5,
{8}6/1h,2,3,4,{16}8h[16:3],,,6h[16:3],,,{8}5h[8:1],
{16}3h[8:3],,,4,,,{8}2,{16}8h[8:3],,,6,,,{8}4,
3h[4:1],4,5,3h[4:1],5,6,3h[4:1],6,
{4}7p3[8:1],7,2v5[8:1]/8v5[8:1],8/2,
{8}4/3,5,3/4,2,{16}1-5[8:1],,,8,{8}1,6,
{4}7>2[8:1],5/7-4[8:1],{8}7,1,2,3,
4/6,5,6/4,7,{16}8v3[8:1],,,1,{8}8,2,
{4}1-7[8:1]/6-2[8:1],6/1,5-1[8:1]/3-7[8:1],5/3,
{8}2-5[8:1],2,8-4[8:1],8,1,{16}1,2,{8}3,5,
6/5,{16}7,4,{8}7,1/8,5/2,{16}3,4,{8}3,5/6,
7/4,6,5/2,3,4/8,7,5/1,2,
3/8,{24}2,1,2,{8}1,3/8,{16}2,7,3,7,4,7,5,7,
{8}6V42[16:11],,,8,,,{4}2<6[16:11],
{8},4,,,{4}6-4[4:1],8,
{8}7V13[16:11],,,5,,,{4}3<7[16:11],
{8},1,,,{4}7-1[4:1],5,
{8}4p8[8:3],,,8p4[8:3],,,{4}4>8[8:5]*<8[8:5],
{16},,,,,,,,,,,,,,3,4,
{8}5/2b<7[8:1],,,5b>2[8:1],,,{4}8b<5[8:1],
8b,1-7[8:1]*-3[8:1],1-5[8:1],1,
{8}4/8h,7,6,5,4/3,2,7,6,
5/1h,2,3,4,5/7,8,1,2,
3/8h,7,6/1,5,4/2,3,7/5,6,
5/1h,2,3/6,4,5/8h,1,6/2,3,
4/8h,7,6/4,3,5/2,1,7/8,6,
5/1h,2,{16}3,4,{8}3,5,6,7/2,3,
4/8h,7,6/4,5,4/3,2,7/1>4[8:1],6,
1-5[8:1],5,1,{16}8,7,{8}6,{16}1,2,{8}4/3,4/5,
{12}8,7,6,5,4,3,7,8,1,2,3,4,
1,8,7,2,3,4,6,7,8,5,4,3,
5,6,7,8,1,2,6,5,4,3,2,1,
4,5,6,3,2,1,7,6,5,8,1,2,
{4}3b/4b,{8}6/5,7,6/5,4,{4}5/6h[4:1],
{8},,3/4,2,3/4,5,{4}4/3h[4:1],
{8},,7/8,6,7/8,1,{4}8/7h[4:1],
{8},,2/1,3,2/1,8,{4}2/1-5[8:1],
{8}1b<6[8:1],,,4b>1[8:1],{16},,,,7-4[8:1],,,8,
{4}7,{16}6,5,{8}6,{4}7/4,{8}2-5[8:1],5>8[16:5],
2,,,7,{4}7,{16}2-5[8:1],,,1,
{4}2,{16}3,4,{8}3,{4}5/2,{8}8,7,
{4}6b/5b,{8}2/1,3,2/1,8,{4}1/2-5[8:1],
2,{8}7/8,6,7/8,1,{4}8/7-4[8:1],
7,{8}6/5,7,6/5,4,{4}5/6<1[8:1],
6,{8}3/4,2,3/4,5,4/3,2,
1/8,{24}7,6,5,2,3,4,8,7,6,{8}5-2[8:1]/1-6[8:1],3/7,{4}1/5,
{8}7/1,{16}3,4,{8}2>5[8:1],{16}1,8,{8}2-6[8:1],8-4[8:1],2,8,
{16}1,2,3,4,1,8,7,6,{8}5/3,6/2,{4}1/7<4[8:1],
{32}7b/3b,2,1,8,,,,,{8}6-1[8:1],5,{16}6b,{32},,,,2b,3,{8}4-1[8:1],{32}8b,7,{16}6,
{4}4b-6[8:1],{8}4/8-6[8:1],1-5[8:1],8>3[8:1],1,{4}8,
{8}4h[8:1],{16}6,3h[8:1],,6,{8}2h[16:1],{4}1-4[8:1]*-6[8:1],1,
{8}8h[8:1],{16}3,7h[8:1],,3,{8}6h[16:1],{4}5v8[8:1]*v2[8:1],5,
{8}5<8[16:3],5,3,3,1>4[16:3],1,7,7,
8,{32}1,8,7,6,,,,,{8}5/4,{16}3,5,2,6,3,7,4,8,
{8}3/1,{16}6,5,{8}7-4[8:1],{16}8,1,{8}7,2-6[8:1],6-4[16:1],2,
{16}1,8,7,6,1,2,3,4,{8}5/7,6/4,{4}3/5-8[8:1],
{32}5b/1b,2,3,4,,,,,{8}2-5[8:1],1,{16}2b,{32},,,,8b,7,{8}6-2[8:1],{32}2b,3,{16}4,
{4}6b>3[8:1],{8}6/1-5[8:1],8-4[8:1],1<6[8:1],8,{4}1,
{8}5h[8:1],{16}3,6h[8:1],,3,{8}7h[16:1],{4}8-5[8:1]*-3[8:1],8,
{8}1h[8:1],{16}6,2h[8:1],,6,{8}3h[16:1],{4}4v1[8:1]*v7[8:1],4,
{16}3b,4,3,5b,4,5,3,4,2b,4,3,6b,4,5,{8}1,
{32}2b/8,3,4,5,,,,,7b/1,6,5,4,,,,,2b/8bw4[8:1],3,4,5,,,,,{4}8b<1[4:3],
{8}1,1,8,8,7,7,6,6,
5,{32}1,2,3,4,,,,,8,7,6,5,{16}2,4,3,7,1-5[8:1],6,4,8,
{4}1b,{16}3,4,{8}2,7-3[8:1],8-4[8:1],7,8,
{16}1<6[16:3],,,2,,,{8}3,{16}4-8[16:3],,,3,,,{8}2,
{4}1-6[8:1],1,{16}2h[16:3],,,3h[16:3],,,{8}4h[8:1],
{16}1h[16:3],,,3h[16:3],,,{8}5h[8:1],{4}8w4[8:1],8,
{16}2,4,3,5,4,6,3,7,2,1,3,8,2,1,3,8,
5,6,4,7,3,6,2,5,8,7,1,6,2,5,3,4,
{2}1h[2:1],{16}8h[16:3],,,7h[16:3],,,{8}6h[16:1],
{32}2,3,4,5,6,7,8,1,2,3,4,5,6,7,8,1,2/6,5,4,3,2,1,8,7,6,5,4,3,2,1,8,7,
{1}6/2z6[4:3],
{8}8-3[8:1],,,4-1[8:1],,,{4}7-4[8:1],
{8}7>4[8:5],,,6,{16}6,,,7,,,{8}8,
{4}1,{16}6,5,{8}6,{16}4,3,2,1,4,3,2,1,
{4}4/8-4[8:1],2,5/1-5[8:1],7,
8>3[4:1],3<6[4:1],6<1[4:1],1,
{8}2,3,4,5,3,4,5,6,
{16}7,5,6,4,5,3,4,2,5,1,6,2,7,3,8,4,
,,,,,,,,,,,,,,,,{1}7bpp8[2:1]/5b-8[2:1],
1v4[2:1]/5-8[2:1],
1V75[2:1]/6-2[2:1],
4pp4[2:1]*qq4[2:1],
{8}1h[8:1],{16}8,2h[8:1],,8,{8}3,{4}4v1[8:1]/8v5[8:1],4/8,
{8}6h[8:1],{16}2,7h[8:1],,2,{8}8,{4}2-6[8:1]/1-5[8:1],2/1,
{8}7-4[8:1],7,1,1,3-8[8:1],3,5,5,
7,{32}8,7,6,5,,,,,{8}3/4,{16}2,5,3,6,4,7,3,8,
{8}2/1,{16}6,5,{8}8-4[8:1],{16}1,7,{8}8-2[8:1],7-5[8:1],8,7,
{16}4,3,2,1,4,5,6,7,{8}8/2,7/3,{4}4/6-1[8:1],
{32}2b/6b,3,4,5,,,,,{8}7-4[8:1],8,{16}7b,{32},,,,3b,2,{8}1-5[8:1],{32}7b,6,{16}5,
1b,{32},,,,2b,3,{8}4-8[8:1],{32}8b,7,{16}6,{2}4bw8[8:1],
{8}2h[8:1],{16}6,3h[8:1],,7,{8}4h[8:1],{16}8b-5[16:1],,,3b-6[16:1],,,{8}7b,
8h[8:1],{16}4,7h[8:1],,4,{8}6h[16:1],{4}4-8[8:1]/5-1[8:1],5/4,
{16}3b,4,3,6b,5,6,3,5,2b,4,3,7b,5,6,{8}2,
{32}7b/1,6,5,4,,,,,2b/8,3,4,5,,,,,1bz5[12:1]*s5[12:1],2/8,3/7,4/6,{8}5,{4}1b>8[4:3],
{8}8,8,1,1,2,2,3,3,
4,{32}7,6,5,4,,,,,1,2,3,4,,,,,8,7,6,5,{4}4-7[8:1]*-1[8:1],
{8}4b<3[4:3],{16},,,,,,,,,,,,6,5,
{2}4h[4:1],{16}2,8,4,6,1<3[8:3],7,3,5,
{2}1,{16}6h[8:1],,,7h[8:1],,,{8}8,
{4}2-5[8:1]/6-2[8:1],6/2,7/3,{24}8,7,6,4,3,2,
{4}1-5[8:1],{8}4-8[8:1],4,,3-1[8:1],{4}3,
{8}8-4[8:1],7,6/8,5,2,{16}6,7/5,,3,{8}4/2,
8/1,{16},,,,4,5,3,6,3,6,2,7,2,7,
{32}8/1b,2,3,4,{8}8/5,8,{32}1/7b,6,5,4,{8}1/3,1,{32}8bs4[8:1]*z4[8:1],7/1,6/2,5/3,{8}4>4[8:15],
{1}8b<4[4:7],
E
