&title=Monster in the Mirror
&artist=ESti
&first=0
&des=WuWai
&freemsg=WuWai
&wholebpm=130
&des_5=WuWai
&lv_5=13+
&inote_5=(130){1},
{16}4h[16:13],,,,,,,,,,5,,,5>6[16:11],,,
{16}4/5h[8:6],,,,,,,,,,,,,,,,
{16}5h[16:13],,,,,,,,,,4,,,4<3[16:9],,,
{16}5/4h[16:10],,,,,,,,,,,,,4/5,,,
{16}1h[8:1],,4h[8:1],,1h[8:1],,4,1,4>6[1:1],,,,4,,,,
{16}5h[999:1],,,,5h[999:1],,,,5h[999:1],,,,5h[999:1],,,,
{16}8h[8:1],,5h[8:1],,8h[8:1],,5,8,5<3[2:1],,,,5,,,,
{16}4h[999:1],,,,4h[999:1],,,,4h[8:1],,3h[16:3],,5,5,,,
{16}46,,53,,2h[16:3],,4,4h[8:1],,1,,,5,,4,,
{16}8,1,7,2,6-1[8:1],,3,,4-6[8:1]*-2[8:1],,,,4,,,,
{16}8h[4:1],,,,2,6,3qq4[8:3],5,,,3/7,,,,,,
{16}5-1[8:1],,,,5/7<4[8:1],,,,2-6[8:1]*-5[8:1],,,,2,,,,
{16}8h[8:1],,5h[8:1],,8h[8:1],,5-2[8:1],8,,,,,6,,1h[8:1],,
{16}8,7,6,5,2>5[8:1],,1,,4w8[8:1]/2,,,,,,,,
{12}2,4,3,{16}6,5,7,4h[8:1],,8,8,2,6,3,5,4,
{16}8,5,7,4,6,3,5,2,7,4,6,3,5,2,4,1,
{16}8,,8,,8,,8,,2,2,6,6,3,3,7,7,
{16}4bv5[8:1]/8bv1[8:1],,,,4<7[8:1]/8>3[8:1],,,,,,,,1-3[8:1]*<7[8:1],,3<5[8:1]/7-5[8:1],,
{16}1,,,,,,,,{24}48,5,6,7,8,1,2,3,4,5,6,7,
{16}1bV38[4:1]/8b-6[8:1],,,,1b/8bV25[4:1],,,,6b-1[8:1],,,,6b,,,,
{12}3h[12:1],4h[12:1],2h[12:1],8h[12:1],6h[12:1],7h[12:1],2h[12:1],4h[12:1],3h[12:1],{16}6,5,7,4,
{16}8pp2[8:1]*-5[8:1],,,,8qq1[4:1],,,,8,,,,2-6[8:1],,3,,
{16}4-1[8:1],,,,4,,,,{24}51,4,3,2,1,8,7,6,5,4,3,2,
{16}1>7[8:3]/8-4[8:1],,,,18,,,,,,,,8,,1,,
{16}7b-2[12:1]/3b-6[12:1],,7b/3b,,7bpp5[8:3]/3b,,,,,,4,,,,,,
{16}4,,4,,7h[16:3],,3,5,,24,,,6,,4,,
{16}8,2,7,3,,6/5-2[8:1],,,7,,,,5-8[8:1],,,,
{16}5,,,,1,7,2,6-4[8:1],,,3,,,,,,
{16}3-7[8:1],,,,3/6>3[8:1],,,,1-6[8:1]*-4[8:1],,,,1,,,,
{16}1h[8:1],,5h[8:1],,1h[8:1],,5-8[8:1],1,,,,,2,,1,,
{16}7,4,6,3-8[8:1],,,5,,5w1[8:1],,,,5,,,,
{12}3,5,1,{16}5,4,7,2h[8:1],,4,3,5,4,6,5,7,
{16}6,8,5,7,4,6,3,5,4,6,3,5,2,4,3,5,
{16}26,,37,,48,,15,,7,3,5,1,5,3,7,1,
{16}5bqq2[8:3]*pp8[8:3],,,,5,,,,,,,,1-6[8:1],,6V83[4:1],,
{16}5-8[8:1],,,,5,,,,{24}65,47,38,1,2,3,4v3[8:1]*v5[8:1],1,8,7,6,5,
{16}4b-2[8:1]*-7[8:1],,,,4b-6[8:1]*-1[8:1],,,,4bw8[8:1],,,,4b,,,,
{12}1h[12:1],4h[12:1],3h[12:1],7h[12:1],5h[12:1],6h[12:1],2h[12:1],4h[12:1],3,{16}8q7[4:1],1,7,2,
{16}8>6[8:3],,,,8,,,,,,,,4qq1[8:3],,6,,
{16}5<8[8:1],,,,5,,,,{24}3,4,5,6,7,8,1v6[12:1]*v4[12:1],6,5,4,3,2,
{16}1>1[2:1],,,,1,,,,,,,,5,,1,,
{16}2b-5[12:1]/6b-1[12:1],,2b/6b,,2bqq4[8:3]/6b,,,,,,5,,,,,,
{16}5qq1[8:3]/4pp8[8:3],,54,,,,,,,,,,2,7,3,6,
{16}4v6[8:1]/5h[8:3],,,,,,,,,,,,,,,,
{16}7h[4:1],,,,1,,5,3,7,,4,6,2,,5,4,
{12}7h[12:1],8h[12:1],1h[12:1],2h[12:1],3h[12:1],4h[12:1],5h[12:1],6h[12:1],7h[12:1],8h[12:3],,,
{16}6,5,7,4,6,3,5,2,6,4,8,2,5,3,7,1,
{24}68,1,2,3,4,5,6/8,7,6,5,4,3,{32}1,2,3,4,5,6,7,8,1,2,3,4,5,6,7,8,
{16}1/5bpp6[8:3],,5bqq4[4:1],,,,,,,,,,2,6,3,5,
{16}4,5,4,6,4,5,3,5,4,7,4,5,2-6[8:1],6,4,8>7[16:7],
{16}2,,,,,,,,,,,,1-5[8:1],,8<4[4:1],,
{16}1>3[8:1],,,,1,,,,{24}34,25,61,7,8,1,2-6[12:1],3,4,5,6,7,
{16}8b-4[12:1]/2b-4[12:1],,,,8b-6[12:1]/2b-6[12:1],,,,8bv5[12:1]/2b-5[12:1],,,,8b/2b,,,,
{12}7h[12:1],3h[12:1],5h[12:1],2h[12:1],6h[12:1],4h[12:1],7h[12:1],3h[12:1],5h[12:1],{16}1-4[12:1],8,2,7,
{16}1pp6[8:3]/8pp5[8:3],,,,18,,,,,,,,4qq5[8:3],,5,,
{16}6<1[8:1],,,,6,,,,{24}15,48,37,26,51,8,7,6,5,4,3,2,
{16}1h[4:1]/8>7[2:1],,,,,,,,,,,,2,,2,,
{16}3b-8[12:1]/7b-4[12:1],,3b/7b,,3b/7b,,,,,,1,5,2-7[8:1]*-5[8:1],6,3,7,
{16}2bqq4[8:3],,,,2,,,,,,,,5pp8[8:3],,3,,
{16}4>2[8:1],,,,4,,,,{24}1,2,3,4,8,1,2-6[12:1],3,4,5,6,7,
{16}8b-5[12:1]/2b-4[12:1],,,,8b/2b-6[12:1],,,,2b-5[12:1]/5b-8[12:1],,,,2b/5b,,,,
{12}4h[12:1],3h[12:1],2h[12:1],1h[12:1],8h[12:1],7h[12:1],6h[12:1],5h[12:1],4h[12:1],{16}5<8[8:1],3,6,4,
{16}5qq1[8:3],,,,5,,,,,,,,6pp1[8:3],,3,,
{16}4>2[8:1],,,,4,,,,{24}8,7,6,5,1,8,7p4[2:1],6,5,4,3,2,
{16}1h[4:3]/7,,,,,,,,,,,,4,,5,,
{16}6b-1[12:1]/3b-8[12:1],,3b/6b,,6b/3bqq5[8:3],,,,,,6,,,,,,
{16}8h[8:1],,4h[8:1],,8h[8:1],,4,8,,,,,,,,,
{1},E
