&title=時の冒険者
&artist=40mP feat.シャノ
&first=0.27
&lv_5=13
&des_5=Xiaoye Travelling Through Time
&inote_5=
(192){4}2h[4:7],{8},E4,,E5,,E6h[8:5],
,,,,,,,,7h[4:7],
,,E6,,E5,,E4h[8:5],
,,,,,,,,2h[4:7],
,,E4,,E5,,E6h[8:5],
,,,,,,,,{4}7h[4:3],
{8}5,5,,4,,,{2}1>4[8:1]/8<5[8:1],
{16}6x,7x,8x,1x,2x,3x,4x,5x,
{4}6x-8-2[4:1],{8}4,4,,3-8[8:1]/4-7[8:1],,,,,{4}1/6,
{8}5,5,{4}6/4,
3-1-7[4:1],{8}5,5,,6-1[8:1]/5-2[8:1],,,,,{4}8/3,
{8}6,5,4,3,
{4}6-8-2[4:1],{8}4,4,,3-8[8:1]/4-7[8:1],,,,,{4}1/6,
{8}5,5,{4}6/4,
7qq4[2:1],{8}3,3,,2,,,{2}1<6[8:1]/2>5[8:1],
8>3[8:1]/7<4[8:1],
{4}2/5xh[2:1],2,2,{8}2,6,
{4}3/7xh[4:1],3,3/8xh[4:1],{8}3,1x-6-2-7[8:9],
{4}4,4,4,4,
3,3,3,2/1,
7/4xh[2:1],7,7,{8}7,3,
{4}6/2xh[4:1],{8}6,E2,6,E1,6,8x-3-7-2[8:9],
{4}5,5,5,5,
6,6h[4:1],7h[4:1],8h[4:1],
1pp4[2:1],7,7,{8}6,6,
{4}5v2[4:1],7,8,1/3,
8-5[4:1],2,{8}3,4,2,4v7[4:1],
{4}3,2,1,8/6-1[8:1],
2,{8}5/3,5/3h[4:1],,7>4[4:1],,1bh[4:1],
,,6,6h[4:1],,2<3[2:1],,8bh[8:3],
,,,,{4}5/4,6/3,
{8}7/2,7-5[8:1]/2-4[8:1],,7b/2b,,8b/1b,,,{4}5/6-1[8:1],
4,4/3-8[8:1],{8}5,5,
{4}6-1[8:1],4,{8}3,3>5[8:5],,4h[8:5],
,,,,,,4x-8[8:1],3x,
4/2,2,,1-5[8:1]*-4[8:1],,,,,{4}4/3-8[8:1],
5,5/6-1[8:1],{8}4,4,
{4}3-8[8:1],{8}5,5-1[8:1],,5x/6x<4[8:5],,2xh[8:5],
,,,,,,{4}7<4[4:1],
4>1[4:1],1<6[4:1],6>3[4:1],3,
2-5[8:1],8,{8}1/2>5[8:1],8,{4}7,
{8}6-1[8:1],4,6,4,8-5[8:1],3,{4}8,
8/7-4[8:1],1,{8}8/7<4[8:1],1,{4}2,
{8}3-8[8:1],5,3,5,1-4[8:1],6,{4}1,
8,{8}7/3,7bxp3[8:1]/3bxp7[8:1],,3bx<6[8:1]/7bx>2[8:1],,,,,7/5,
7/5,,4/2,{4}4-8[8:1]/2-6[8:1],
4/2,{8}7/5,6,5,4-8[8:1],3,4b/2b,
{16},,2,1,{8}2,8/3,{16}2,3,4,5,6,7,8,1,
{4}2pp3[4:1],{8}6,6,{4}7h[4:1],{8}1,1<6[4:1],
,2,{4}2h[4:1],3h[4:1],4h[4:1],
5,{8}7,7>2[4:1],,2<5b[8:3],,3h[8:3],
,,,,{4}4/3,6/2,
7qq6[4:1],{8}3,3,{4}2h[4:1],{8}8,8>3[4:1],
,7,{4}7h[4:1],6h[4:1],5h[4:1],
4,{8}2,2<7[4:1],,7>4b[8:3],,6h[8:3],
,,,,5,6,7/3,8,
{4}1/2pp5[8:3],{8}8,7,{4}6h[4:1],{8}8,8>5[8:3],
,,{4}5<8[4:1],8>3[4:1],3<6[4:1],
6,{8}8,8<5[8:1]*>3[8:1],,8w4[8:1],,8,
,,{4}6/2,{6}8xh[12:1]/1xh[12:1],7xh[12:1]/2xh[12:1],6xh[12:1]/3xh[12:1],
{4}5/4-1[8:1],6,5/4>1[8:1],7,
4/5-8[8:1],3,4/5<8[8:1],2,
{8}2-5[8:1],1,2,8,7-4[8:1],8,7,1,
2>5[8:1],1,2,8,7<4[8:1],8,{4}7,
{8}2/4,3,7/5,6,5/4,6/3,{4}7-4[8:1]/2-5[8:1],
{2}7bx/2bx,{8}8/1,8/1-5[8:1],,1b/6<3[4:1],
,6/4h[4:1],,,4/5,4/5-1[8:1],,5b/2>7[4:1],
,2/8h[4:1],,,1,1>4[8:1],,1x<6[8:1],
,1x-4[8:1],,1x-6[8:1],,1x<4[4:1],,1x,
,,{4}6/3,{8}8/1,2/7-3[8:1],6/3,7b<4[8:1]*>2[8:1],
,,,,8/1,7/2-6[8:1],6/3,2b>5[8:1]*<7[8:1],
,,,6,5/4,3,{4}1/2-6[8:1],
{8}8/2,8-6[8:1]*-5[8:1],,8-2[8:1]*-3[8:1],,8-6-4v7[8:3],,8b,
{16},,3x,2x,{4}1x,{8}1/8,1/8-4[8:1],,8b/3>6[4:1],
,3/5h[4:1],,,5/4,5/4-8[8:1],,4b/7<2[4:1],
,7/1h[4:1],,,8,7,6,5-8[8:1],
,5x-2[8:1],,5x<8[8:1],,5x-3-1-7[8:3],,5x,
,,6,6,5/4,3,2/1,3/8,
,6,{4}6<1[8:1],6/4,{8}3/4,5/2,
{4}6/1,{8}8/7,7/8<5[8:1],,1/8>3[8:1],,8/7,
{16},,5,4,5,4,5,4,5,4,5,4,6,3,7,2,
{2}8bh[2:1],{16}E3,E4,E5,E6,E7,E8,E1,E2,
{4}7<4[8:1],{8}3,2,{4}8/1-5[8:1],{8}7,6h[4:1],
,4,3h[8:1],6,7h[8:1],2,1h[8:1],5,
6h[8:1],A5/B5/E5,2h[8:1],E4/A3/D4,7h[8:1],1pp2pp4[2:1],3h[8:1],A1/B1/E2,
,,{4}6,{8}8/1,7,6/2,3,
{4}4/5<8[8:1],{16}2,3,{8}4>1[8:1],{16},,7,6,{4}5,
{8}2/4,3/5,4/6,7-4[8:1]/5-2[8:1],,,,3/8,
{4}3/8z4[4:1],{8}2,2-4-6[4:1],{16},,7,8,{4}1,
{8}8/5,7/4pp8[8:3],6/3,2h[8:3],{16},,,,,,,,A1,
E2,E3,A3,A7,E7,E6,A5,B8,C,B4,A4,A8,E8,E7,A6,
A2,E3,E4,A4,A1,B1,C,B5,{2}A5/3-8[8:1]*-6[8:1],
{8}7/5,2,1/3,7,8/6,3,4-7[8:1]/2-5[8:1],1/5,
{4}2b/4b-1[4:1]*-8[4:1],,,6xh[4:1],
{8}3,4/2pp2[4:1],1,5/2b<3[8:3],,7h[4:1],,,7,
8/6pp6b[4:1],5,1/6b>7b[8:3],,3h[4:1],,,3,
2/4pp6[16:3],1/5,4qq2b[16:3],,4<7[8:1],,4>1b[8:1],
,4w8[8:1],,4,,,6/2,6/2,
3,4x/5x-2[8:1],6,7/5bxpp1[8:3],,5bx/3,,,2,
1x/8x-3[8:1],7,6/8bxqq4[8:3],,8bx/2,,,1,
2,{4}8/3,{8}6/3,8/1-3[8:1]*-4[8:1],,1-7[8:1]*-6[8:1],
,1-3-5v2[8:3],,1b,{16},,6x,7x,{4}8x,
{8}6,5/7qq7b[4:1],8,4/7b>6b[8:3],,2h[4:1],,,2,
1/3qq3[4:1],4,8/3b<2[8:3],,6h[4:1],,,6,
7/5qq3b[16:3],8/4,5pp7[16:3],,5>2b[8:1],,5<8[8:1],
,5-3-1-7b[8:3],,5,,,6,5,
4/3,2,1/8,7/2,,3,{4}3>8[8:1],
3/5,{8}6/5,4/7,{4}3/8,{8}1/2,2/1>4[8:1],
,8/1<6[8:1],,1/2,,4,3/5,2,
{16}1,8,1,8,1,8,1,8,{2}2h[2:1]/7h[2:1],
{4},7-4[8:1]/2-5[8:1],7b/2b,{8}8,8<4[4:1],
,4>8[4:1],,8<4[4:1],,,{4}3,
{8}1/2,1/2,{4}3/8<5[8:1],8/1,{8}2,2V46b[4:1],
,6V82b[4:1],,2V46b[4:1],,,{4}7,
{8}8/1,2,3/4,5,{4}6/4,{8}8,8q4[4:1],
,4q8[4:1],,8V24V68b[2:1],,,,,{4}2,
5/4,3/6<1[8:1],{8}2,2>5[8:1],
,7,{4}7,7-4[8:1]/8-3[8:1],8x/7x,
2-5[8:1]/1-6[8:1],1x/2x,{2}8xqq5[2:1]/1xpp4[2:1],
{8},,,,8b/1b,7b/5b,2b/4b,D1f/E8/A8/B8/E1/B1/A1/E2/D8/D2,
E
