&title=Cristalisia
&artist=onoken
&first=0.03
&lv_5=14
&des_5=したば_R
&inote_5=
(134){4},{2},,,{4}5q8[4:5]/1q4[4:5],
{2},,,2V84[1:1]/6V48[1:1],
{1},{4}6h[4:1],
5h[4:1],4h[4:1],3h[4:1],
{8}2<3[2:3],E3,B2,{16}E2,B1,{8}B8,C,{4},{8}B7,
E7,B6,{16}E6,B5,{8}B4,C,{4},{8}7>6[2:3],
E7,B7,{16}E8,B8,{8}B1,C,{4},{8}B2,
B3,B4,B5,{2}Ch[4:1],
{16}7-5[8:1],4,{8},7/4,{16}3,4,2-4[8:1],5,{8},5/2,{16}6,5,
7-5[8:1],4,{8},7/4,{16}3,4,2-4[8:1],5,{8},{4}2/5,
{16}7-4[8:1],1,{8},7/2,{16}3,5,2-5[8:1],6,{8},2/7,{16}6,4,
7-4[8:1],3,{8},7/2,{16}3,5,2-5[8:1],6,{8},{4}2/7,
{16}7<4[8:1],1,,1,{8}7,{16}1,7,2>5[8:1],8,,8,{8}2,{16}8,2,
7<4[8:1],1,,1,{8}7,{16}1,7,2w6[8:1],8,{8},{4}2bx,
{16}6-8[8:1],4,,4,{8}6,{16}4,5,3-1[8:1],5,,5,{8}3,{16}5,4,
6-1[8:1],4,,4,{8}6,{16}4,5,4w8[8:1],5,{8},{4}4bx,
{16}6,5,7h[4:1],4,{8},{16}3,4,2h[4:1],5,{8},{16}6,5,7h[4:1],4,
{8},{24}3,4,3,{16}5,2h[8:1],,7,{24}1,2,3,8,7,6,2,3,4,7,6,5,
{16}3,4,2h[4:1],5,{8},{16}6,5,7h[4:1],4,{8},{16}3,4,2h[4:1],5,
{8},{24}6,5,6,{16}4,7h[8:1],,2,{24}8,7,6,1,2,3,{32}6,5,4,3,2,1,8,7b,
{16}3,6,2h[4:1],5,{8},{16}6,3,7h[4:1],4,{8},{16}3,6,2h[4:1],5,
{8},{24}6,5,6,{16}4,7h[8:1],,2,8,7,2,3,{24}8,7,6,2,3,4,
{16}7,5,6h[4:1],4,{8},{16}2,4,3h[4:1],5,{8},{16}7,5,6h[4:1],4,
{8},{24}3,4,3,{16}5,2h[8:1],,7,1,2,7,6,{32}1,2,3,4,5,6,7,8,
{4}1b-5[4:1],5-3[4:1],3p7[4:1],7p3[4:1],
3<1[2:1],2,1,4p1[8:5]*q7[8:5],
{8}4b,{4},,,{16}8/4,7/3,
{4}2/6>3[4:1],3>8[4:1],8<5[4:1],5s1[2:1]*V31[2:1],
,,,{8}2,1,
{4}8<4[4:1],4>8[4:1],8-4[16:3],4-1[4:1],
{8}5-2[4:1],{4},{8}4-7[4:1],{4},6-1[4:1],
{8},4b,{4},{16}8,4,7,3,{24}6-1[8:1]/2-5[8:1],7/3,8/4,1/5,{12},{1}Cf/E7/E3/B2/B6/6p3[4:5]/2p7[4:5],
,{2}3h[1:1],
{32}B3,E4,{16},,,,,,,{2}4h[1:1],
{32}B4,E5,{16},,,,,,,{2}5h[1:1],
{32}B5,E6,{16},,,,,,,{2}6h[1:1],
{32}B6,E7,{16},,,,,,,B1,
B2,B3,B4,B5,B6,B7,B8,E8,E7,E6,E5,E4,E3,E2,E1,
2,3,4,5,6,7,8,1,7,6,5,4,3,2,1,8,
2,3,6,7,3,4,7,8,2,3,4,5,7,8,1,2,
4,5,6,7,{24}4x/8x,5x/1x,6x/2x,7x/3x,8x/4x,1x/5x,{2}2xpp5[4:7]/6xpp1[4:7],
{4},,,,,,,C,
{8}2/7-4[8:1],8,{16}7,1>4[8:1],,2,,1,{8},5pp7[8:1],3,
{16}1,2-6[8:1],3,4-8<6[16:3],,2b,,4b,{4},{8}6q2[8:1],5,
{16}6/3-1<8[8:1],{8},{16}E4/B3/B4,{8},B5/B4/E5,{16}6-4>3[8:1],{8},{16}B7/B6/E7,{8},B7/E8/B8,
{16}1,2,8,7,,3/7,,6v8[8:1]/2v4[8:1],,3/7,,6b/2b/C,{4},{8}7/2-5[8:1],
1,{16}2,8<5[8:1],,7,,8,{8},4qq2[8:1],6,
{16}8,7-3[8:1],6,5-1>3[16:3],,7b,,5b,{4},{8}7-4[8:1],1,
{16}1-6[8:1],{8},{16}3-8[8:1],{8},5-2[8:1],{16},7,{8},8,7,
{16}1,2,8,7,,6/2,,7v5[8:1]/3v1[8:1],,6/2,,7b/3b/C,{4},7-4[8:1]/3-8[8:1],
7b/3b/Cf/E7/E3/B7/B3/B4/B8,1>5[4:1],5<1[4:1],
1V35[4:1],5V71[4:1],1-5[8:1],6-8[8:1],
{8}6/4-2[8:1],3,4/5-1[8:1],6,5/4-8[8:1],3,5-7[8:1],4-2[8:1],
5-1[8:1],4-8[8:1],5,4,{32}E6,E7,E8,E1,E2,E3,E4,E5,B5,B6,B7,B8,B1,B2,B3,B4,
{4}2q6[4:1],6q2[4:1],2>6[4:1],6<2[4:1],
2V46[4:1],6V82[4:1],2q6[4:1],6q2[4:1],
2V86[4:1],6V42[4:1],2<6[4:1],6>2[4:1],
2,{8}6b,{16}8,1,6,3,7,2,5,4,8,2,
{8}7qq4[4:1],8,{16}7,1>3[8:1],,2,,1,{8},6pp8[8:1],3,
{16}1,2,3,4-7<5[4:1]*-1>3[4:1],,3/5,,4b/B6/B2,{2},{8}2pp5[4:1],
1,{16}2,8<6[8:1],,7,,8,{8},3qq1[8:1],6,
{16}8,7,6,5,,7/3,,6v8[8:1]/2v4[8:1],,7/3,,6b/2b/C,{4},{8}8qq5[4:1],
7,{16}8,1>4[8:1],,2,,1,{8},5pp7[8:1],3,
{16}1,2,3,4p8[8:1]*q8[8:1],,5/3,,4b/B5/C/B1,{4},{16}8-3[8:1]/4-7[8:1],7/3,6/2,1-6[8:1]/5-2[8:1],
4/8,{8},{16}1/5,{8},5h[16:3],{16},6h[16:3],{8},7b,8b,
{16}1/5,2/6,3/7,4/8,,1/5,,8v5[8:1]/4v1[8:1],,7/3,,8b/4b/C,{4},{16}1h[16:3],
{8},{16}3h[16:3],{8},5h[16:3],{16},7h[16:3],{8},8b,1b,
{16}2/6,3/7,4/8,5/1,,3/7,,6-1[8:1]/2-5[8:1],,7/3,,Cf/E7/B7/E3/B3/B6/B2/6bp3[16:29]/2bp7[16:29],
E
