&title=Won(*3*)Chu KissMe!
&artist=Remixed by L.E.D. & IOSYS
&first=-0.892
&des=Lukazio
&lv_5=13
&des_5=Lukazio
&inote_5=
(160){4},{8},,,,,,B6,
B4,B5,B3,,E5,,Cfh[2:1],
,,,8x,,,,,{4}1,
{8}2,3,,4/5h[4:1],,4x<8qq8[8:5],
,1,2,3,{2}4,
{4}8,{8}7,6,,5/4h[4:1],,5x>1pp1b[8:5],
,8,7,6,{2}5,
{4}6h[4:1]/B1,{8}3h[8:3],B8,,6,,5pp4[2:1]/4qq5[2:1],
,,,,,,{4}6x/3x,
6/2h[4:1],{8}5,1h[8:3],{4}4,4,
3/7h[4:1],{8}4,8h[8:3],{4}5,5,
{8}2b-6[16:1],1,8,7b-3[16:1],8,1,{4}4bV68[8:3],
4b/E3/E2/B2h[4:3],,,Cf,
{8}8h[8:1],{16}2,1,{8}3,{16}3,4,{8}2>5[8:1],1-6[8:1],2,1,
,4h[8:1],{16}6,5,{8}6,{16}7,6,{8}7h[8:3],{16}5x,4x,3x,2x,
{8}1xh[8:1],{16}7,8,{8}6,{16}6,5,{8}7<4[8:1],8-3[8:1],7,8,
,5h[8:1],{16}3,3,{8}4h[8:1],{16}2,2,{8}4h[8:1],1,{16}1,8,
{8}1b,{16}6,5,{8}7h[8:1],{16}2-6-4[4:1],1,{8}3,2,1,8,
7-3-5[4:1],8,{16}7,1,{8}1h[8:3],{16}E6,E7,E8,E1,E2,E3,E4,E5,
{8}2b,{16}3,4,{8}2h[8:1],{16}7-1-5[4:1],8,{8}6,7,4,3b,
,6b/4b-8[8:1],,4b/2b,,E7/E3/Cf,,,{4}3x/6xh[8:5],
{8}2,B4,,C,,7/8-4[8:1],
,8/1,2,B2,{4}C,B4/B6,
5x/7xh[8:5],{8}3,B4,,C,,5/6-2[8:1],
,7/6,8,B8,{4}C,B5/B3,
6x/3xh[8:5],{8}7,B5,,C,,2/1-5[8:1],
,8/1,7,B7,{4}C,B3/B5,
4x/2xh[8:5],{8}6,B5,,1b,,3b-7[8:1]/4b-8[8:1],
,4b/3b>4[8:3],,,,,{4}Cf,
{8}4x/3x,5,4/3,2,4/3,5,3/4,2,
1/2,8,1/2h[4:1],8,7,2h[4:1]/B8,B7,B6,
7h[8:1],8,7h[8:1],1,7h[8:1],2,7h[8:1],3,
4/2h[8:1],5,2h[8:1]/4qq8[8:3],5,6,E6,E7,E8f,
6x/5x,4,5/6,7,6/5,4,5/6,7,
8/7,1,8/7h[4:1],1,2,7h[4:1]/B1,B2,B3,
2h[8:1],1,2h[8:1],8,2h[8:1],7<4[8:1],,7b/1>4[8:1],
,1b/8,{4}A4fh[2:1],{16}D5,D6,D7,D8,D4,D3,D2,D1,
{4}6h[4:1],{8}7h[8:1],6p2[8:1],,6/2p6[8:1],,2b/3h[2:1],
,,,5h[8:3],,6,4h[4:1],3,
{4}6<2[8:3],{8}3,2p5[4:1],,5<4[8:5],{16},,,,E2,
B1,{8}B8,{16}B4,B5,{8}E6,{16}2x,1,2x,1,5x,6,5x,6,
{4}3xh[4:1],{8}4,3q7[8:1],,3/7q3[8:1],,7b/6h[8:3],
,,4,5p1[8:1],,5b/2,3qq7>6[1:1],4,
{4}3b/5,B6/B5,,B8/B7,
B1/B2,B3/B4,{16}B5/B6/Ch[8:3],,,B7/B8,,,{8}8x,
7bx/5bx,6,5,4bx/2bx,3,4,8bx/1bx,{16}2,2,
1h[8:1]/3h[8:1],,,6h[8:1]/8h[8:1],,,{8}B2/B3/B7/B6/Cfh[8:3],,,,,4x/3x,
5qq5pp5[2:1],5,2x,,8x,,1h[4:1],
,6,{4}7<4[8:1],{8}7b,{16}2,1,,7,{8}8,
{4}1-5-3[4:1],{8}1,7>3[8:1],,7-4[8:1]*-5[8:1],,,,1,
2/5h[4:1],3,{16}4b,5,3,6,2,7,1,8,
{4}1bx-5[8:1],{8}2,2-6[8:1],,2<7[8:1],,5h[4:1],
,4,{4}6h[4:1],{16}1,2,3,4,8,7,6,5,
{8}1x/4,1x,8/7,6,5/4,3,2/1,8h[4:1],
{4}1-5[8:1],1/7-4[8:1],7/2-6[8:1],2b/8b,
{8}7/5,6,4/2,3,6/8,7,1/3,2,
{16}5b/B8f/B7,,,4b/B1f/B2,,,{8}8b/B4/E5f/B5,{4}Cfh[4:1],1b,
{8}7x/8x,1qq1pp1[2:1],1,6x,,4x,,5h[4:1],
,2,{4}3>8[8:1],{8}3b,{16}7,5,,2,{8}4,
{4}5-1-7[4:1],{8}5,3<7[8:1],,3-8[8:1]*-1[8:1],,,,5,
6/1h[4:1],7,{16}8b,1,7,2,6,3,5,4,
{4}5bx-1[8:1],{8}6,6-2[8:1],,6>3[8:1],,1h[4:1],
,8,{4}2h[4:1],{16}5,6,7,8,4,3,2,1,
{8}5x/8,5x,4/3,2,1/8,7,6/5,5,
{4}6/5-8[8:1],4/5-2[8:1],6/5-1[8:1],4/5,
{8}2b-6[16:1],1,8,7b-3[16:1],8,1,{4}2b-8-6-4[8:3],
2b/E4/E3/B3h[4:3],,,Cf,
{8}8h[8:1],{16}2,3,{8}2,{16}2,1,{8}2-5[8:1],6-1[8:1],2,6,
,4h[8:1],{16}5,4,{8}6,{16}6,5,{8}7h[8:1],{16}5x,4x,3x,2x,
{8}1xh[8:1],{16}7,6,{8}7,{16}7,8,{8}7-4[8:1],3-8[8:1],7,3,
,5h[8:1],{16}3,3,{8}4h[8:1],{16}2,2,{8}4h[8:1],1,{16}1,1,
{8}2b/8b,{16}6,5,{8}7,{16}3v1[4:1],4,{8}2,3,4,5,
6-2-6[4:1],2,{16}6,1,{8}1h[8:3],{16}E6,E5,E4,E3,E2,E1,E8,E7,
{8}2b-7[16:1],6-3[16:1],2b,6,{16}2,4,2,4,{8}2,{16}8<5[8:1],1,
{8}7,8b,1>4[8:1],B3/B4,1b,8<5[8:1],B6/B5,8b,
1>4[8:1],B2/B3,1b,8<5[8:1],B7/B6,8b>3b[8:1],{32},,,,8bx,B8f,C,B4,
E
