&title=Senkyou
&artist=MYTK
&first=0
&des=Fox 2 -UNCAGED-
&wholebpm=180.000
&clock_count=4
&lv_5=14
&des_5=Fox 2 -UNCAGED-
&inote_5=(180){1},
{16}
1s5[8:8]/6h[8:9],,,,,,,,
,,,,,,,,
{16}
,,,,,,6,,
6-2[8:1],,,,,,,,
{16}
1pp5[8:6],,,,,,,,
6,,,,,,,,
{16}
1pp6[8:6],,,,5,,,,
5,,,,,,,,
{16}
1pp5[8:6],,,,6,,,,
6,,,,,,,,
{16}
4bqq1[8:6],,,,5,,,,
5,,,,,,,,
{16}
8qq4[8:6],,,,,,,,
3b,,,,,,,,
{16}
8qq3[8:6],,,,4,,,,
4,,,,,,,,
{16}
8qq4[8:6],,,,3,,,,
3,,,,,,,,
{16}
5bpp6[8:4]*v3[8:4],,,,,,,,
,,,,,,,,
{16}
5h[8:2]/4,,,,4,,6h[8:2]/5,,
,5,,5,6,7,8<2[16:31]/1b,,
{16}
,,,,,,,,
,,,,1,,,,
{16}
1,,,,1,,,,
,,,,,,,,
{16}
1q3[8:5],,,,,,,,
7,,,7,,,7,6,
{16}
4h[8:2]/5,,,,5,,3h[8:2]/4,,
,4,,4,3,2,1>7[16:31]/8b,,
{16}
,,,,,,,,
,,,,8,,,,
{16}
8,,,,8,,,,
,,8,,8,,8,,
{16}
1,,1,,2,,2,,
3,,3,5,4,,4,,
{16}
5/6V47[16:9],,,,4,,,3,
,,2,,,1,,,
{16}
4/3V52[16:9],,43,,5,,,6,
,,7,,,8,,,
{16}
5/6pp5[16:9],,,,4,,,3,
,,2,,,1,,,
{16}
4/3qq4[16:9],,43,,5,,,6,
,,7,,,8,,,
{16}
6,,6,,64,,,53,
,,42,,,31,,,
{16}
2,,2,,35,,,46,
,,57,,,68,,,
{16}
5,7,5,7,4,6,4,6,
3,5,3,5,2,4,2,4,
{16}
1V73[8:2]*s5[8:3],,,,,,,,
,,2,1,8,7,6,5,
{16}
4/8h[8:2],,,,4,,8h[8:2]/3-6[8:1],,
,,,,8,,2-7[8:1]/8h[8:2],,
{16}
,,,,8,,,7<4[8:1]/1,
,,3,,3,,,,
{16}
5/1h[8:2],,,,4,,1h[8:2]/3-6[8:1],,
,,,,1,,8-4[8:1]/1h[8:2],,
{32}
,,,,,,,,1,,,,3h[8:1]/5h[8:1],,,,
,,,,3h[8:1]/5h[8:1],,,,,,,,2/6,,,,
{32}
7h[8:1]/3,,,,
{16},,4,,8h[8:2]/3-6[8:1],,
,,,,8,,2-7[8:1]/8h[8:2],,
{16}
,,,,8,,,1/7,
,,2h,2h,6h,,4,,
{16}
1-4[8:1],,,,7,,5V71[8:2],,
,,2,,3,,4qq3[8:2],,
{16}
,,7,,5,,4<7[8:1],,
,,8,,8,1,2,3,
{16}
8/4h[8:2],,,,8,,5h[8:2]/1-6[8:1],,
,,,,3,,2-5[8:1]/4h[8:2],,
{16}
,,,,6,,,4-1[8:1]/7,
,,7,,5,,,,
{16}
5h[8:2]/1,,,,1,,4h[8:2]/8-3[8:1],,
,,,,6,,7-4[8:1]/5h[8:2],,
{32}
,,,,,,,,3,,,,1h[8:1]/5h[8:1],,,,
,,,,8h[8:1]/7h[8:1],,,,,,,,4/6,,,,
{32}
1h[16:2]/2h[16:2],,,,
{16},,3,8,5,7,
3,8,5,7,3,8,5,7,
{16}
1h[16:2],,,3h[16:2]/4h[16:2],,,7/5,,
8h,,2h,3h,4h/1,8,7,6,
{16}
5-3[8:1]/8,,,,1/5,,2-6[8:1],,
,,6/2,,,,7,4,
{16}
1h[16:8],,,,,,,,
4,5,6,7,8,1,2,3,
{16}
5pp4[8:12]/4qq5[8:12],,,,,,,,
,,,,,,,,
{16}
,,,,,,,,
,,,,,,,,
{16}
5/7V58[16:9],,,,4,,,3,
,,2,,,1,,,
{16}
4/2V41[16:9],,42,,5,,,6,
,,7,,,8,,,
{16}
6,,6,,85,,,74,
,,63,,,52,,,
{16}
2,,2,,14,,,25,
,,36,,,47,,,
{16}
5,8,5,8,4,7,4,7,
3,6,3,6,2,5,2,5,
{16}
1pp1[8:3],,,,,,,,
5h,,5h,6h,7h/8<4[8:3]*>4[8:3],,,,
{48}
8b,,,,,,,,,,,,
,,,,,,,,,,,,
3,,,,5,,,,4,,,,
6,,,,5,,,,7,,,,
{48}
2,,,,8,,,,3,,,,
7,,,,1,,,,6,,,,
3,,,,5,,,,4,,,,
6,,,,5,,,,7,,,,
{48}
3,,,,3,,,,6,,,,
5,,,,4,,,,3,,,,
6,,,,6,,,,3,,,,
4,,,,5,,,,6,,,,
{48}
8>3[8:1]*-4[8:1],,,,,,,,,,,,
8<5[16:3],,,,,,,,,,,,
1h,,,,,,1h,,,2h,,,
3h,,,,,,,,,,,,
{48}
5w1[8:1],,,,,,,,,,,,
,,,,,,,,,,,,
5-1[16:19]/6,,,,7,,,,8,,,,
2,,,,3,,,,4,,,,
{48}
6,,,,7,,,,8,,,,
2,,,,3,,,,4,,,,
6,,,,7,,,,8,,,,
5b,,,,,,,,,,,,
{48}
7h[12:4],,,,,,,,1,,,,
,,,,3,,,,,,,,
3h[12:4]/4,,,,,,,,6,,,,
,,,,8,,,,,,,,
{48}
7-4[8:1]/1-6[8:1],,,,,,,,,,,,
1>4[16:3],,,,,,,,,,,,
5h,,,,,,5h,,,6h,,,
7h,,,8,,,1,,,2,,,
{48}
3,,,,,,,,,4,,,
,,,,,,8,,,,,,
2/6V82[16:4],,,,,,,,,1V35[16:4],,,
,,,,,,4V68[16:4],,,,,,
{48}
,,,7V13[16:4],,,,,,,,,
2V46[16:4],,,,,,,,,5V71[16:4],,,
,,,,,,1,,,,,,
,,,3,,,,,,,,,
{48}
4h[12:4],,,,,,,,2,,,,
,,,,8,,,,,,,,
6h[12:4]/4,,,,,,,,2,,,,
,,,,8,,,,,,,,
{48}
8>3[8:1]/5<8[8:1],,,,,,,,,,,,
5V38[16:3],,,,,,,,,,,,
7h,,,,,,7h,,,6h,,,
5h,,,4,,,3,,,2,,,
{48}
1,,,,,,,,,7,,,
,,,,,,8,,,,,,
7/8-2[16:1],,,,,,,,,8-5[16:1],,,
,,,,,,8-3[16:1],,,,,,
{48}
,,,8-6[16:1],,,,,,,,,
8-4[16:1],,,,,,,,,8-5[16:1],,,
,,,,,,8,,,,,,
3b,,,,,,
,,,,,,
{48}
2h[12:2],,,,,,,,3h[12:2],,,,
,,,,4,,,,,,,,
5h[12:2]/4,,,,,,,,6h[12:2],,,,
,,,,7,,,,,,,,
{48}
7-3[8:2]/8,,,,,,,,,,,,
,,,,,,,,,,,,
5h,,,,,,5h,,,4h,,,
3h/7,,,2/6,,,1/5,,,8/4,,,
{16}
7bq5[8:12]/3bq1[8:12],,,,,,,,
,,,,,,,,
{16}
,,,,,,,,
,,,,,,,,
{16}
5/7V58[16:9],,,,4,,,3,
,,2,,,1,,,
{16}
4/2V41[16:9],,42,,5,,,6,
,,7,,,8,,,
{16}
6pp5[8:5]/5,,5,,4,,4,,
3,,3,,2,,2,,
{16}
1>4[8:1]/4,,4,,5,,6,,
57,,68,,71,,82,,
{16}
3,7,4,7,5,7,6,7,
8,6,1,6,2,6,3,6,
{16}
4w8[8:1],,,,,,,,
2/6,5,2,3,5,6,7,8,
{16}
1-6[8:1]/2,,,,4/1,,3V15[16:3],,
,,,4,4h[8:3],,,,
{16}
,,7<4[8:1],,,,7/8,,
1-5[8:1],,2-4[12:1],,1,,2,,
{16}
6,,6-4[12:1],,7,,6/3>1[8:1],,
,,6-4[12:1],,7,,6/3-8[8:1],,
{16}
,,6-4[12:1],,7,,6/3-7[8:1],,
,,6,,4,,8,,
{16}
2/6-1[8:1],,,,5/6,,4V26[16:3],,
,,,8,8h[8:3],,,,
{16}
,,3>8[8:1],,,,3/4,,
6pp5[16:4],,6,,2,,2,3,
{16}
4>1[8:1],,,,6,,7,,
,,4>1[24:3],,5,,6,,
{16}
7,,5>1[24:4],,6,,7,,
6,,5,,8,7,6,5,
{16}
8-3[8:1]/4,,,,5/8,,6z2[8:2],,
,,,5,5h[8:3],,,,
{16}
,,2>5[8:1],,,,2/1,,
8-4[8:1],,7-5[12:1],,8,,7,,
{16}
3,,3-5[12:1],,2,,3/6<8[8:1],,
,,3-5[12:1],,2,,3/6-1[8:1],,
{16}
,,3-5[12:1],,2,,3/6-2[8:1],,
,,3,,3,4,1,8,
{16}
7/3-8[8:1],,,,4/3,,5V73[16:3],,
,,,1,1h[8:3],,,,
{16}
,,6<1[8:1],,,,6/5,,
3qq4[16:4],,3,,7,,7,6,
{16}
5bqq1[8:10]*<8[8:4],,,,,,,,
,,,,,,,,
{16}
8b,,,,,,,,
7,6,3,4,6,7,8,1,
{16}
3b-5[32:3],,,,3/8,,7qq8[16:4],,
,,,2,2h[8:3],,,,
{16}
,,1,,6/8,,7,,
3h[8:1],,
{24}1-5[8:1],8,7,
{16}
6-1[8:1],,1,,
{16}
6,,2-5[8:1],,2,,7-3[8:1],,
,,1-5[8:1],,1,,7-3[8:1],,
{16}
,,8-5[8:1],,8,,7-3[8:1],,
,,1,,1,2,4,5,
{16}
1/6>3[8:1],,,,3/6,,2p8[16:4],,
,,,5,5h[8:3],,,,
{16}
,,1,,2/7,,3,,
1/4p8[8:1],,
{24}8>4[24:5],7,6,
{16}
5,,5,6,
{16}
7,,,,7/5,,7<5[24:2],8,
,,7,,4,,7<4[24:3],8,
{16}
,,7,,3,,7<3[24:4],8,
,,7,,2,1,8,7,
{16}
6>3[8:1],,,,6/1,,2pp8[16:4],,
,,,7,7h[8:3],,,,
{16}
,,5,,3/1,,4,,
6h[8:1],,
{24}8-4[8:1],1,2,
{16}
3-8[8:1],,8,,
{16}
3,,7-4[8:1],,7,,2-6[8:1],2h,
,,8-4[8:1],,8,,2-6[8:1],2h,
{16}
,,1-4[8:1],,1,,2-6[8:1],2h,
,,8,,8,7,5,4,
{16}
8/3-7[8:1],,,,8,,8-4[16:2],,
,,,,1V73[16:3],,,,
{16}
,,6<1[8:1],,,,4,,
5,,
{24}5/8,4/7,3/6,
{16}
2-6[16:1],,
{24}
8,,
{16}
2bqq3[8:8]/4bpp5[8:8],,,,,,,,
,,,,,,,,
{16}
,,,,,,,,
3,6,4,6,5,6,7,6,
{16}
8bqq3[8:14],,,,,,,,
,,,,,,,,
{16}
,,,,,,,,
,,,,,,,,
{16}
8qq4[8:14],,,,,,,,
,,,,,,,,
{16}
,,,,,,,,
,,,,,,,,
E
