&title=THE CELESTIA 180
&artist=Sobrem / Sound piercer "Espitz" Gt.NeLiME
&first=0
&des=Celestia Ludenberg
&clock_count=4
&wholebpm=180
&lv_5=15
&des_5=Celestia Ludenberg
&inote_5=(160){1},
{1},
{1},
{4}6h[4:3],5h[4:3],,,
{4}4h[4:3],3h[4:3],,,
{2}1h[2:1],2h[2:1],
{4}E4,E5,E6h[2:1],,
{4}8h[2:1],7,6h[2:1],5,
{8}4h[2:1],,3,,2h[2:1],,1,1,
{4}8>3[4:1],2,4<7[4:1],6,
(150){8}2h[2912:2721],1,8,7,(140)6,(130)5,(120)4,(100)3,
(90){1}1s5b[4:3]/8z4[4:3],{8},
(180)
{8}6h[8:3]/5b,,7>4[24:5],8,7b/1h[4:1],,,,
{8}7h[8:3]/5,,8>6b[4:1],1,8b/2h[4:1],,,,
{8}12,38,47,56,3v8[8:1]/7-4[8:1],,37,,
{4}1b>4[8:1]/5b<8[8:1],1bqq3[8:3]/5b,1b/5bh[4:1],,
{4}6-4[32:3]/4-2[32:3],6/4-8[8:1],1-4[8:1]*-6[8:1],1,
{4}7-4[8:1]/5-2[8:1],7/5<3[4:1],3p5b[16:3],{8}5,4,
{16}3h[8:1],,1,2,{24}8,7,6,5h[8:1],,,{16}2,7,8,7,{24}1,2,3,4h[8:1],,,
{16}7,5,6,2,8,1,4,3,D7h[4:1]/D6h[4:1]/A6hf[4:1],,,,{32}8b,1b,2b,3b,4b,,,,
{16}7,1,7,,6,4,6,,7h[8:1],,6,7,5,6,4,5,
{16}3,4,3,,2,1,2<5b[24:5],,4h[8:1],,D2f/E2f/A2/A1,,,,,,
{32}8b-4>3-6[16:5]/1b,7,6,5h[32:5],,,,,{8}8,5,7h[4:1],,{16}5,5,8,,
{32}4b-7<6v1b[16:5]/7b,3V52[32:7]/6,2/5,14,,,,,{4},,,
{8}7b/8b>4[4:1],6,7,6,7,6,7/5h[8:1],6,
{16}7/8h[8:1],,6,2h[8:1],7,,6/5qq3[32:3],,7,,6,,7,4pp8[16:7],6,,
{8}4b/3b,2,3,2,3,2,3/1h[8:1],2,
{16}3/4h[8:1],,2,6h[8:1],3,,2/8qq1[4:1],,3,,2,,3,,2,,
{16}4b/3b>6[24:5],,5,,4,,5,,4,,5/8h[8:1],,4,2,5,,
{16}1b/7b<2[24:5],,8,,1,,8,,1,,8/5h[8:1],,1,7,8,,
{16}2b/6b,,3,7,4,6,5,,7b/3b,,6,2,5,3,4,,
{16}6bV47[16:3]/1b,,,4b,,,2bV83[16:3],,,8b,,,6b,,45,,
{16}2b,6,4,6,3,7,5,7,1,6,4,6,2,7,5,7,
{16}2,1,3,6,5,7,2,8,3,7,4,6h[8:1],8,1,2,3,
{16}5b,3,4,3,7,4,5,4,6,2,4,2,8,5,6,5,
{16}7,8,6,3,4,2,7,8,6,1,5,2,6,3,7,4,
{8}1b-6b[8:1],1,5-2[8:1],5,8<5b[8:1],8,4>1[8:1],4,
{8}7bv4b[8:1],7,3v8[8:1],3,6>3b[8:1],6,1,1,
{16}7bh[8:1]/2b,,5,6,,6,4,,2bh[8:1]/5b,,4,3,,3,7h[8:1],,
{16}8b,6,1,5,8,6,2,4,8,6,3,3,{32}8,7,6,5,4,3,2,1,
{2}E5h[2:1],E6h[2:1],
{2}A6h[2:1],,
{2}E3h[2:1],E4h[2:1],
{2}A4h[2:1],5<8[8:1],
{4}2h[2:1],B3,4h[2:1],B5,
{4}6h[4:1],7h[2:1],8h[12:5],,
{1}6pp3[2:1]*pp5[16:7],
{12}E2,E6,E3,E7,E4,E8,E5h[4:1],,,,,,
{24}6b,5,6,5h[16:1],,,3,4,3,4h[16:1],,,7,8,7,8h[16:1],,,2,1,2,1h[16:1],,,
{16}3/8pp1[16:3],,,6,6h[4:1],,,,8,7,6,5,1,8,7,6,
{24}3b,4,3,4h[16:1],,,6,5,6,5h[16:1],,,2,1,2,1h[16:1],,,7,8,7,8h[16:1],,,
{16}6/1qq8b[16:3],,,3,3h[4:1],,,,1,2,3,4,8,1,2,3,
{4}4h[12:5]/E7h[4:1]/B6h[2:1]/B7h[4:3],,,,
{24}8,1,2h[12:1],3h[12:1],,,1,2,3h[12:1],4h[12:1],,,2,3,4h[12:1],5h[12:1],,,3,4,5h[12:1],6h[12:1],,,
{16}8b/7b-5[8:1],,,,4-8b[8:1],,3,,1h[4:1],,,,B2/B3/E3,,,,
{16}8,1,8,2,7,3,7,4,6,5,6,4,5,3,5,2,
{8}4b-6<7[16:3],,7-3b[8:1],8,1h[4:1],,B2/E2/E3,,
{24}4b,5,6,7,8,1,2,3,4,5,6,7,{2}8w4b[8:1],
{16}1b/7b,,2,5,4,6,3,7,1,5,3,5,2,7,4,7,
{16}3,2,6,5,2,1,5,4,8,1,2,3,45,3,2,1,
{16}7b/8h[8:1],,5,1,6,2,4,3,8,5,6,5,7,2,4,2,
{32}6b,5,4h[16:1],,1b,2,3h[16:1],,7b,6,5h[16:1],,2b,1,8h[16:1],,{16}4b-1b[8:1],5,6,7,8h,,,,
{16}7b/8b,,2,6,3,5,4,6,8,7,1,6,2,5,3,4,
{16}2b/5,1,8,7,6,5,4,3,2/7b,6,51,2,3/6p4[8:3],5,48,1,
{8}6b/2h[4:1],,,,{16}1b,2,34,5,62,3,45,6,
{24}8b/7,1,2h[12:1],3h[12:1],,,1,2,3h[12:1],4h[12:1],,,2bh[24:1],3bh[24:1],4bh[24:1],5bh[24:1],6bh[24:1],7bh[24:1],8pp6b[2:1],,,,,,
{2}8b/E2f/B2/B1,{16}3,3,,4,4-1[8:1],,52,,
{12}7bh[4:1]/E4f/B4/A4,,,8,8,8,{24}6,5,4,1,2,3,4b/7b,,,,,,
{12}15,1,1,24,5,3,47,6,1,38,5,7,
{12}2-4b[12:1],8,1,7-1b[12:1],5,6,4-6b[12:1],2,3,1-3b[12:1],7,8,
{1}6b-8>1-3<4-6<7-1>2-4<5-7>8-2>3-5<6[4:7],
{1},
{1},
{1},
{2}E7h[2:1],E6h[2:1],
{2}E8h[2:1],E2h[2:1],
{2}E4h[2:1],E3h[2:1],
{1}B8h[8:3]/E1h[16:7]/B1h[2:1],
{2}E4h[2:3],E6h[1:1],
{2}E5h[2:1],{24},,,7,8,1,2w6b[8:1],,,,,,
{16}2b`Cf,,,,8,5,6,3,7,4,5,2,6,3,4,1,
{16}7,8,5,2,6,1,4,3,5,4,6,5,7<8b[8:3],1,8,2,
{16}7b/3bh[8:3],,,,,,,,37,46,5,46,37,28,1,28,
{24}7b,3,7,3,7,3,7-3[8:1],3,7,3s7b[4:1],7,3,,,,,,,,,,,,,
{4}8b/1b-4[8:1],1-6[8:1]/5v2b[8:1],15,{16}34,5,6,7,
{4}8b-3b[8:1]/2b-5[8:1],8/2,{16}62,15,48,37,2b/6b,,,,
{8}2h[16:1]/4b,3h[16:1]/5b,4h[16:1]/6b-2[8:1],5h[16:1]/7b,6/8bp4[8:1],,1bh[4:1]/8,,
{16}3b,4,5,6,7/1b,2,3,4,7b,1,6,8,7b/1b,,,,
{16}2b,5,4,5,3,6,4,6,1,4,3,4,2,7,5,7,
{16}8,6,2,4,3,1,5,7,8,6,{24}4,5,4,6h[16:1],,,7h[16:1]/8h[16:1],,,
{24}1/2b,3,4,5,6,7,3,2,1,8,7,6,4b/5,3,2,1,8,7,3,4,5,6,7,8,
{16}1b>8b[32:7]/2b,,,7,8b/1b,,,,{64}D1,A1,D2,A2,D3,A3,D4,A4,D5,A5,D6,A6,D7,A7,D8,A8,{4}D1/A1f/D2/E1/E2/B1,
{24}3b/7b,,,,,,2-5b[8:1],1,2,1-6-3[4:1],2,1,2b-7b[8:1],,,,,,2b,,,,,,
{24}8b/2b,,,,,,6<1b[8:1],5,6,5p7[16:3],6,5,6b>3b[8:1],,,,,,6b,,,,,,
{16}1b,4,2b,5,3b,6,4b,7,5b,6,7,8,5b/1,62,73,84,
{16}1bv6[8:1]/5b-2[8:1],,,,1b<3b[4:1]/5b,,,,{24}7bh[4:1]`E2/D2,E1/D1,E8/D8,E7/D7,E6/D6,E5/D5,E4f/D4,,,,,,
{16}7b/8b,,26,,3,4,1,1,28,,37,,6,5,8,8,
{16}71,2,3,4,58,1,2,3,47,8,1,2,6,4,5,4,
{16}7bh[8:1]/3b,,8,6,1,5,2,4,3,5,1,7,2,6,4,5,
{24}1b,8,1,8,1,8,1-5[8:1],8,1,8,1,8,1>8b[4:1],,,,,,,,,,,,
{16}E1f/D1/A1/A8/D8/D2,,,,3,3,,3h[16:1],8,7,6,5,{24}8,1,2,3,4,5,
{16}E7f/B6/B7,,,,1,1,,1h[16:1],4,5,6,7,{24}4,3,2,1,8,7,
{16}A5f/E6/B5/E5,,,,17,17,,1/7h[16:1],2,3,4,5,{24}2,1,8,7,6,5,
{16}A1f/E1/E2/D1/D2/B1,,,,37,37,,15,1>4b[8:1]/5<8b[8:1],,,,15,,,,
{16}5b/6b,,48,,7,3,21,,47,,6,4,5,3,7,1,
{16}25,3,47,3,26,3,48,3,25,3,47,3,2>8[4:1]/6,3,48,3,
{8}2b/5h[4:1],,,2h[4:1]/3,{16}5b,6,7,8,12,3,4,5,
{16}7b,7,5,6,1,1,4,3,{24}7b,6,5,4,3,2,1qq3b[2:1]/7,6,5,4,3,2,
{2}1b/E8f/B7/B8,{16}6,6,,5,5-8b[8:1],,47,,
{12}2bh[4:1]/E6f/B5/A5,,,1,1,1,{32}3,4,5,6,2,1,8,7,2b/6b,,,,,,,,
{24}3b/4h[8:1],,5,,5,,67,,1,8,1,,6b/5h[8:1],,4,,4,,23,,8,1,8,,
{24}2b,2,6,5,3h[24:1]/4,,8b,8,4,5,7h[24:1]/6,,{24}1b,1,5,4,2,3,4/7b,7,1,8pp3[8:7],5>6[6:5],46,
{1},
{1},
{12}26,15,4>6[1:3]/8q2[1:3],
